<?xml version="1.0" standalone="no"?>
<!DOCTYPE svg PUBLIC "-//W3C//DTD SVG 1.1//EN" "http://www.w3.org/Graphics/SVG/1.1/DTD/svg11.dtd" >
<svg xmlns="http://www.w3.org/2000/svg" xmlns:xlink="http://www.w3.org/1999/xlink" version="1.1">
<metadata>
Created by FontForge 20201107 at Thu Mar 27 10:22:38 2014
 By Jimmy Wärting
Copyright (c) 2014 by Intelligent Design - Kostas Bartsokas. All rights reserved.
</metadata>
<defs>
<font id="ZonaPro-Black" horiz-adv-x="306" >
  <font-face 
    font-family="Zona Pro"
    font-weight="1000"
    font-stretch="normal"
    units-per-em="1000"
    panose-1="2 1 10 3 4 0 2 2 0 4"
    ascent="825"
    descent="-175"
    x-height="545"
    cap-height="705"
    bbox="-324 -356 1260 1017"
    underline-thickness="20"
    underline-position="-133"
    stemh="110"
    stemv="72"
    unicode-range="U+0020-FB04"
  />
<missing-glyph horiz-adv-x="500" 
 />
    <glyph glyph-name="f_i" unicode="fi" horiz-adv-x="692" 
d="M398 601c0 0 -29 1 -39 1c-75 0 -78 -21 -78 -53v-4h357v-545h-199v391h-158v-403c0 -119 -76 -179 -172 -179c-45 0 -80 5 -104 11v150c77 0 77 17 77 104v317h-60v154h60v41c0 122 81 180 179 180c97 0 137 -26 137 -26v-139zM538 577c-60 0 -109 48 -109 107
s49 107 109 107s108 -48 108 -107s-48 -107 -108 -107z" />
    <glyph glyph-name="f_l" unicode="fl" horiz-adv-x="692" 
d="M360 766c122 0 278 -51 278 -223v-543h-199v486c0 114 -30 127 -79 127c-39 0 -79 -9 -79 -68h116v-154h-116v-404c0 -119 -77 -180 -174 -180c-45 0 -80 6 -102 12v150h7c70 0 70 20 70 103v319h-60v154h60c0 118 79 221 278 221z" />
    <glyph glyph-name="f_f" unicode="ff" horiz-adv-x="814" 
d="M804 741v-139c-16 1 -29 1 -39 1c-73 0 -78 -20 -78 -51v-7h119v-154h-119v-385c0 -120 -77 -180 -175 -180c-45 0 -79 6 -101 12v150c78 0 78 17 78 107v296h-208v-404c0 -120 -78 -180 -175 -180c-44 0 -78 6 -101 12v150c74 0 77 15 77 92v330h-60v154h60v16
c0 120 79 181 176 181c100 0 140 -25 140 -25v-139s-59 3 -75 3c-42 0 -42 -7 -42 -33l208 -3v41c0 119 79 180 175 180c100 0 140 -25 140 -25z" />
    <glyph glyph-name="f_f_i" unicode="ffi" horiz-adv-x="1121" 
d="M869 0v391h-182v-384c0 -119 -76 -179 -172 -179c-45 0 -80 5 -104 11v150h8c70 0 70 21 70 106v296h-208v-403c0 -119 -76 -179 -172 -179c-45 0 -80 5 -104 11v150h7c70 0 70 20 70 103v318h-60v154h60v17c0 119 79 180 174 180c101 0 142 -25 142 -25v-139
c-35 3 -59 3 -75 3c-42 0 -42 -8 -42 -34v-2h208v42c0 117 78 179 173 179c101 0 142 -25 142 -25v-139c-16 1 -29 1 -39 1c-76 0 -78 -22 -78 -54v-4h380v-545h-198zM967 577c-59 0 -108 48 -108 107s49 107 108 107c60 0 108 -48 108 -107s-48 -107 -108 -107z" />
    <glyph glyph-name="f_f_l" unicode="ffl" horiz-adv-x="1098" 
d="M766 766c125 0 278 -53 278 -223v-543h-198v486c0 102 -30 127 -80 127c-40 0 -79 -9 -79 -65v-3h117v-154h-117v-385c0 -119 -76 -179 -172 -179c-46 0 -80 5 -104 11v150h8c70 0 70 21 70 106v297h-208v-404c0 -119 -76 -179 -172 -179c-45 0 -80 5 -104 11v150h7
c70 0 70 20 70 103v319h-60v154h60v16c0 120 78 180 173 180c98 0 144 -25 143 -24v-139s-59 3 -75 3c-41 0 -42 -7 -42 -29v-7h208v6c3 116 81 215 277 215z" />
    <glyph glyph-name="f_igrave" unicode="f&#xec;" horiz-adv-x="692" 
d="M493 589l-75 63c-136 0 -137 -67 -137 -103v-4h357v-545h-199v391h-158v-403c0 -119 -76 -179 -172 -179c-45 0 -80 5 -104 11v150c77 0 77 17 77 104v317h-60v154h60v40c0 123 81 178 179 178h254l94 -174h-116z" />
    <glyph glyph-name=".notdef" horiz-adv-x="500" 
 />
    <glyph glyph-name="NULL" horiz-adv-x="0" 
 />
    <glyph glyph-name="CR" horiz-adv-x="277" 
 />
    <glyph glyph-name="space" unicode=" " horiz-adv-x="322" 
 />
    <glyph glyph-name="dotlessi" unicode="&#x131;" 
d="M53 0v545h199v-545h-199z" />
    <glyph glyph-name="fraction" unicode="&#x2044;" horiz-adv-x="505" 
d="M447 701h141l-483 -701h-141z" />
    <glyph glyph-name="Lslash" unicode="&#x141;" horiz-adv-x="628" 
d="M-13 216v184l73 21v284h205v-224l175 52v-184l-175 -52v-135h333v-162h-538v237z" />
    <glyph glyph-name="lslash" unicode="&#x142;" horiz-adv-x="378" 
d="M3 216v184l69 21v333h206v-274l81 26v-184l-81 -26v-296h-206v237z" />
    <glyph glyph-name="exclam" unicode="!" horiz-adv-x="333" 
d="M237 264h-140l-33 440h206zM166 203c61 0 109 -48 109 -107s-48 -106 -109 -106c-59 0 -107 47 -107 106s48 107 107 107z" />
    <glyph glyph-name="quotedbl" unicode="&#x22;" horiz-adv-x="555" 
d="M298 336l23 364h215l-133 -364h-105zM34 336l22 364h215l-133 -364h-104z" />
    <glyph glyph-name="numbersign" unicode="#" horiz-adv-x="708" 
d="M442 570l22 139h144l-22 -139h91v-162h-119l-16 -104h104v-162h-131l-25 -151h-144l25 151h-104l-24 -151h-145l25 151h-93v162h120l17 104h-106v162h134l22 139h144l-22 -139h103zM398 304l17 104h-104l-16 -104h103z" />
    <glyph glyph-name="dollar" unicode="$" horiz-adv-x="668" 
d="M389 541v-103c155 -35 249 -88 249 -218c0 -134 -99 -218 -249 -229v-62h-84v62c-98 3 -164 18 -262 67l75 150c65 -32 127 -45 187 -49v110c-141 33 -249 76 -249 219c0 126 94 218 249 226v39h84v-41c92 -8 162 -32 224 -56l-83 -154c-44 16 -94 32 -141 39zM262 505
c0 -19 7 -32 43 -45v86c-30 -4 -43 -20 -43 -41zM432 200c0 18 -7 33 -43 46v-87c28 5 43 19 43 41z" />
    <glyph glyph-name="percent" unicode="%" horiz-adv-x="899" 
d="M397 516c0 -125 -81 -199 -181 -199c-101 0 -182 74 -182 199c0 126 81 199 182 199c100 0 181 -73 181 -199zM162 516c0 -42 25 -77 54 -77c30 0 53 35 53 77c0 43 -23 78 -53 78c-29 0 -54 -35 -54 -78zM683 387c101 0 182 -73 182 -199c0 -125 -81 -198 -182 -198
c-100 0 -181 73 -181 198c0 126 81 199 181 199zM683 111c30 0 54 35 54 77c0 43 -24 78 -54 78s-53 -35 -53 -78c0 -42 23 -77 53 -77zM617 701h142l-483 -701h-142z" />
    <glyph glyph-name="ampersand" unicode="&#x26;" horiz-adv-x="699" 
d="M543 366l140 -40c2 2 -34 -75 -93 -154l79 -80l-119 -103l-67 69c-54 -40 -116 -68 -182 -68c-153 0 -281 71 -281 221c0 80 57 150 138 189c-25 28 -40 67 -40 113c0 143 100 205 216 205c119 0 217 -73 217 -184c0 -78 -57 -158 -134 -190l68 -69c19 25 43 67 58 91z
M334 583c-28 0 -53 -35 -53 -74c0 -40 40 -68 40 -68c30 9 66 33 66 67c0 40 -23 75 -53 75zM311 139c28 0 52 9 69 24l-117 123c-27 -13 -46 -38 -46 -68c0 -44 44 -79 94 -79z" />
    <glyph glyph-name="quotesingle" unicode="'" horiz-adv-x="291" 
d="M32 336l23 364h219l-133 -364h-109z" />
    <glyph glyph-name="parenleft" unicode="(" horiz-adv-x="449" 
d="M235 296c0 -139 66 -249 174 -324l-66 -104c-179 91 -293 236 -293 428c0 190 114 336 293 427l66 -103c-108 -76 -174 -186 -174 -324z" />
    <glyph glyph-name="parenright" unicode=")" horiz-adv-x="449" 
d="M217 296c0 138 -66 248 -174 324l65 103c179 -91 294 -237 294 -427c0 -192 -115 -337 -294 -428l-65 104c108 75 174 185 174 324z" />
    <glyph glyph-name="asterisk" unicode="*" horiz-adv-x="426" 
d="M395 472l-46 -79l-93 61l4 -113h-91l6 113l-95 -60l-46 78l100 51l-100 52l46 79l95 -61l-6 113h91l-6 -113l95 60l46 -78l-100 -51z" />
    <glyph glyph-name="plus" unicode="+" horiz-adv-x="640" 
d="M578 453v-162h-175v-175h-164v175h-175v162h175v176h164v-176h175z" />
    <glyph glyph-name="comma" unicode="," horiz-adv-x="293" 
d="M149 203c18 0 106 -4 106 -130c0 -194 -136 -209 -203 -209l-28 80h9c36 0 85 8 93 47c-48 9 -86 51 -86 107c0 62 53 105 109 105z" />
    <glyph glyph-name="hyphen" unicode="-" horiz-adv-x="408" 
d="M369 414v-162h-330v162h330z" />
    <glyph glyph-name="period" unicode="." horiz-adv-x="293" 
d="M256 96c0 -60 -50 -107 -109 -107c-60 0 -108 47 -108 107c0 59 48 107 108 107c59 0 109 -48 109 -107z" />
    <glyph glyph-name="slash" unicode="/" horiz-adv-x="542" 
d="M-39 -128l443 926h162l-443 -926h-162z" />
    <glyph glyph-name="zero" unicode="0" horiz-adv-x="730" 
d="M366 714c179 0 324 -133 324 -362s-145 -362 -324 -362c-178 0 -324 133 -324 362s146 362 324 362zM366 532c-66 0 -119 -82 -119 -180c0 -99 53 -180 119 -180c67 0 119 81 119 180c0 98 -52 180 -119 180z" />
    <glyph glyph-name="one" unicode="1" horiz-adv-x="425" 
d="M271 705h91v-705h-205v514l-108 -24l-40 157z" />
    <glyph glyph-name="two" unicode="2" horiz-adv-x="624" 
d="M398 167h191v-167h-556v69c180 231 365 207 365 366c0 56 -41 102 -93 102c-28 0 -91 -21 -93 -101v-2h-178v16c0 153 127 265 275 265c147 0 275 -115 275 -266c0 -175 -99 -234 -186 -282z" />
    <glyph glyph-name="three" unicode="3" horiz-adv-x="622" 
d="M574 617l-155 -203c97 -35 169 -84 169 -197c0 -143 -113 -228 -283 -228c-112 0 -180 9 -273 51l74 152c72 -28 137 -36 206 -36c46 0 77 31 77 58c0 16 0 79 -118 79h-76l-35 85l124 160h-216v167h506v-88z" />
    <glyph glyph-name="four" unicode="4" horiz-adv-x="692" 
d="M583 293h87v-162h-87v-131h-198v131h-345l-35 84l420 490h158v-412zM278 293h107v129z" />
    <glyph glyph-name="five" unicode="5" horiz-adv-x="631" 
d="M367 458c143 0 225 -101 225 -241c0 -143 -113 -228 -283 -228c-112 0 -179 9 -272 51l73 152c72 -28 139 -36 206 -36c43 0 77 36 77 77c0 17 -3 77 -89 77c-62 0 -156 -14 -152 -13l-81 45l10 363h480v-167h-308l-3 -89c32 6 69 9 117 9z" />
    <glyph glyph-name="six" unicode="6" horiz-adv-x="662" 
d="M396 459c90 0 223 -59 223 -229c0 -155 -129 -240 -289 -240s-290 134 -290 319c0 297 129 406 300 406c112 0 184 -29 253 -75l-87 -142c-39 31 -94 50 -153 50c-89 0 -109 -96 -109 -141c31 26 68 52 152 52zM329 324c-51 0 -91 -41 -91 -91c0 -51 41 -91 92 -91
c50 0 90 41 90 91s-40 91 -91 91z" />
    <glyph glyph-name="seven" unicode="7" horiz-adv-x="617" 
d="M46 705h542v-88l-308 -617h-221l270 538h-283v167z" />
    <glyph glyph-name="eight" unicode="8" horiz-adv-x="630" 
d="M315 715c138 0 251 -62 251 -203c0 -52 -23 -98 -61 -135c61 -42 99 -102 99 -167c0 -148 -130 -220 -289 -220c-160 0 -289 72 -289 220c0 65 38 125 98 167c-38 37 -60 83 -60 135c0 141 113 203 251 203zM315 573c-40 0 -74 -26 -74 -68c0 -41 34 -64 74 -64
s73 23 73 64c0 42 -32 68 -73 68zM315 139c51 0 92 33 92 77s-42 76 -92 76s-93 -32 -93 -76s42 -77 93 -77z" />
    <glyph glyph-name="nine" unicode="9" horiz-adv-x="662" 
d="M263 246c-89 0 -223 59 -223 228c0 155 129 241 290 241s290 -134 290 -319c0 -297 -129 -406 -299 -406c-112 0 -186 29 -254 75l88 142c39 -31 93 -50 152 -50c85 0 109 88 109 134c-32 -27 -81 -45 -153 -45zM330 381c51 0 92 41 92 91s-41 91 -92 91
c-50 0 -91 -42 -91 -91c0 -50 41 -91 91 -91z" />
    <glyph glyph-name="colon" unicode=":" horiz-adv-x="301" 
d="M150 333c-60 0 -108 48 -108 107s48 107 108 107s108 -48 108 -107s-48 -107 -108 -107zM150 203c60 0 108 -48 108 -107c0 -60 -48 -107 -108 -107s-108 47 -108 107c0 59 48 107 108 107z" />
    <glyph glyph-name="semicolon" unicode=";" horiz-adv-x="301" 
d="M150 333c-60 0 -108 48 -108 107s48 107 108 107c59 0 108 -48 108 -107s-49 -107 -108 -107zM150 203c61 0 108 -41 108 -124s-22 -215 -204 -215l-27 80c73 0 95 20 101 47c-49 10 -86 53 -86 105c0 59 48 107 108 107z" />
    <glyph glyph-name="less" unicode="&#x3c;" horiz-adv-x="646" 
d="M564 640v-184l-231 -105l231 -104v-184l-498 243v90z" />
    <glyph glyph-name="equal" unicode="=" horiz-adv-x="640" 
d="M73 147v163h492v-163h-492zM73 592h492v-163h-492v163z" />
    <glyph glyph-name="greater" unicode="&#x3e;" horiz-adv-x="646" 
d="M82 63v184l231 104l-231 105v184l498 -244v-90z" />
    <glyph glyph-name="question" unicode="?" horiz-adv-x="540" 
d="M264 715c153 0 257 -86 257 -230c0 -105 -73 -192 -217 -192l-5 -56h-139l-11 128l17 45h68c45 0 106 18 106 76c0 39 -39 62 -70 62c-66 0 -130 -11 -186 -36l-66 152c84 42 144 51 246 51zM229 203c61 0 109 -48 109 -107c0 -60 -48 -107 -109 -107
c-60 0 -108 47 -108 107c0 59 48 107 108 107z" />
    <glyph glyph-name="at" unicode="@" horiz-adv-x="965" 
d="M486 724c242 0 439 -195 439 -437c0 -132 -76 -236 -223 -236c-69 0 -119 34 -140 80c-35 -47 -85 -76 -143 -76c-130 0 -199 104 -199 209c0 128 90 271 226 271c61 0 104 -33 130 -79l8 59l158 -24s-42 -217 -42 -292c0 -37 10 -69 51 -69c81 0 104 97 104 155
c0 204 -164 370 -369 370c-203 0 -369 -166 -369 -370c0 -205 166 -370 369 -370c91 0 173 33 238 86c51 -50 50 -49 50 -49c-77 -67 -178 -107 -288 -107c-243 0 -440 197 -440 440c0 242 197 439 440 439zM528 302c0 39 -26 70 -60 70c-36 0 -72 -34 -72 -84
c0 -40 24 -70 59 -70c36 0 69 33 73 84z" />
    <glyph glyph-name="A" unicode="A" horiz-adv-x="800" 
d="M581 0l-50 113h-263l-49 -113h-214l347 705h96l348 -705h-215zM400 414l-60 -139h120z" />
    <glyph glyph-name="B" unicode="B" horiz-adv-x="716" 
d="M553 552c0 -46 -20 -89 -51 -109c106 -17 189 -108 189 -220c0 -117 -74 -223 -213 -223h-418v705h343c83 0 150 -71 150 -153zM259 538v-76h63c35 0 51 16 51 38c0 20 -12 38 -49 38h-65zM260 167h100c87 0 116 28 116 78c0 36 -31 75 -115 75h-101v-153z" />
    <glyph glyph-name="C" unicode="C" horiz-adv-x="728" 
d="M412 173c56 0 105 31 135 80l157 -128c-69 -83 -174 -135 -292 -135c-207 0 -375 162 -375 362s168 363 375 363c118 0 223 -53 292 -136l-157 -128c-30 49 -79 80 -135 80c-89 0 -164 -64 -164 -179c0 -112 75 -179 164 -179z" />
    <glyph glyph-name="D" unicode="D" horiz-adv-x="768" 
d="M731 352c0 -187 -147 -352 -332 -352h-339v705h316c196 0 355 -158 355 -353zM259 178h122c82 3 148 80 148 174c0 96 -69 175 -153 175h-117v-349z" />
    <glyph glyph-name="E" unicode="E" horiz-adv-x="669" 
d="M259 167h374v-167h-573v705h552v-167h-353v-115h291v-162h-291v-94z" />
    <glyph glyph-name="F" unicode="F" horiz-adv-x="650" 
d="M626 538h-367v-199h312v-167h-312v-172h-199v705h566v-167z" />
    <glyph glyph-name="G" unicode="G" horiz-adv-x="767" 
d="M400 366h322v-272c-79 -64 -187 -104 -308 -104c-208 0 -377 162 -377 362s169 362 377 362c118 0 215 -39 283 -102l-127 -135c-38 35 -96 55 -156 55c-93 0 -169 -81 -169 -180c0 -109 76 -191 169 -191c38 0 72 11 103 30v13h-117v162z" />
    <glyph glyph-name="H" unicode="H" horiz-adv-x="763" 
d="M505 705h198v-705h-198v211h-246v-211h-199v705h199v-327h246v327z" />
    <glyph glyph-name="I" unicode="I" horiz-adv-x="333" 
d="M269 705v-705h-205v705h205z" />
    <glyph glyph-name="J" unicode="J" horiz-adv-x="561" 
d="M305 705h205v-417c0 -176 -81 -298 -255 -298c-133 0 -242 102 -252 233l175 16c8 -41 29 -67 70 -67c28 0 57 28 57 56v477z" />
    <glyph glyph-name="K" unicode="K" horiz-adv-x="733" 
d="M429 352l314 -352h-268l-177 202l-39 -48v-154h-199v705h199v-271l228 271h245z" />
    <glyph glyph-name="L" unicode="L" horiz-adv-x="618" 
d="M265 162h333v-162h-538v705h205v-543z" />
    <glyph glyph-name="M" unicode="M" horiz-adv-x="868" 
d="M711 705h97v-705h-205v277l-169 -212l-169 212v-277h-205v705h96l278 -348z" />
    <glyph glyph-name="N" unicode="N" horiz-adv-x="786" 
d="M521 705h205v-705h-96l-365 349v-349h-205v705h96l365 -349v349z" />
    <glyph glyph-name="O" unicode="O" horiz-adv-x="829" 
d="M413 714c209 0 377 -162 377 -362s-168 -362 -377 -362c-208 0 -377 162 -377 362s169 362 377 362zM413 172c94 0 169 80 169 180c0 99 -75 180 -169 180c-92 0 -168 -81 -168 -180c0 -100 76 -180 168 -180z" />
    <glyph glyph-name="P" unicode="P" horiz-adv-x="674" 
d="M60 705h303c219 0 294 -129 294 -269c0 -204 -133 -285 -324 -285h-68v-151h-205v705zM265 312h46c101 0 131 55 131 109c0 59 -28 117 -114 117h-63v-226z" />
    <glyph glyph-name="R" unicode="R" horiz-adv-x="722" 
d="M467 0l-109 150c-2 1 -4 1 -6 1h-87v-151h-205v705h335c219 0 294 -129 294 -269c0 -115 -41 -201 -129 -247l151 -189h-244zM265 538v-227h78c101 0 131 56 131 110c0 59 -28 117 -114 117h-95z" />
    <glyph glyph-name="S" unicode="S" horiz-adv-x="653" 
d="M361 441c163 -35 262 -87 262 -221c0 -144 -114 -230 -285 -230c-126 0 -197 12 -309 68l74 150c86 -41 163 -51 242 -51c47 0 72 15 72 45c0 24 -19 42 -112 63c-149 34 -264 74 -264 223c0 132 103 227 273 227c122 0 210 -30 284 -58l-82 -155c-64 24 -145 46 -208 46
c-42 0 -61 -19 -61 -43c0 -28 20 -43 114 -64z" />
    <glyph glyph-name="T" unicode="T" horiz-adv-x="660" 
d="M640 705v-167h-206v-538h-205v538h-207v167h618z" />
    <glyph glyph-name="U" unicode="U" horiz-adv-x="758" 
d="M709 705v-422c0 -163 -113 -293 -330 -293c-216 0 -328 129 -328 293v422h199v-369c0 -127 44 -168 129 -168c87 0 131 41 131 168v369h199z" />
    <glyph glyph-name="V" unicode="V" horiz-adv-x="760" 
d="M380 335l152 370h223l-329 -705h-92l-328 705h222z" />
    <glyph glyph-name="W" unicode="W" horiz-adv-x="1117" 
d="M1103 705l-284 -705h-80l-181 378l-181 -378h-79l-285 705h221l113 -326l172 326h79l170 -326l114 326h221z" />
    <glyph glyph-name="X" unicode="X" horiz-adv-x="734" 
d="M368 506l122 199h225l-214 -348l225 -357h-230l-128 209l-128 -209h-230l226 357l-216 348h227z" />
    <glyph glyph-name="Y" unicode="Y" horiz-adv-x="728" 
d="M499 705h233l-266 -468v-237h-205v237l-265 468h233l135 -256z" />
    <glyph glyph-name="Z" unicode="Z" horiz-adv-x="701" 
d="M663 705v-88l-331 -450h331v-167h-624v84l334 454h-323v167h613z" />
    <glyph glyph-name="bracketleft" unicode="[" horiz-adv-x="468" 
d="M421 560h-193v-545h193v-142h-357v828h357v-141z" />
    <glyph glyph-name="backslash" unicode="\" horiz-adv-x="543" 
d="M419 -128l-443 926h162l443 -926h-162z" />
    <glyph glyph-name="bracketright" unicode="]" horiz-adv-x="467" 
d="M44 15h194v545h-194v141h358v-828h-358v142z" />
    <glyph glyph-name="asciicircum" unicode="^" horiz-adv-x="504" 
d="M174 490h-135l168 215h87l169 -215h-136l-76 103z" />
    <glyph glyph-name="underscore" unicode="_" horiz-adv-x="601" 
d="M602 -30v-110h-605v110h605z" />
    <glyph glyph-name="grave" unicode="`" horiz-adv-x="504" 
d="M308 746l-197 170l212 17l101 -187h-116z" />
    <glyph glyph-name="a" unicode="a" horiz-adv-x="672" 
d="M425 545h199v-545h-199v27c-41 -23 -84 -37 -127 -37c-178 0 -264 143 -264 283c0 142 86 283 264 283c41 0 84 -12 127 -32v21zM425 191v163c-25 20 -57 32 -90 32c-76 0 -111 -57 -111 -113s36 -114 111 -114c33 0 65 12 90 32z" />
    <glyph glyph-name="b" unicode="b" horiz-adv-x="677" 
d="M374 555c151 0 272 -105 272 -283c0 -174 -121 -283 -272 -283c-41 0 -84 10 -126 29v-18h-199v754h199v-227c42 18 85 28 126 28zM337 159c69 0 113 41 113 113c0 67 -44 114 -113 114c-32 0 -64 -12 -89 -32v-163c25 -20 57 -32 89 -32z" />
    <glyph glyph-name="c" unicode="c" horiz-adv-x="568" 
d="M421 219l124 -112c-49 -72 -129 -117 -218 -117c-165 0 -299 126 -299 282c0 157 134 283 299 283c92 0 171 -45 220 -116l-126 -113c-18 36 -54 60 -94 60c-58 0 -105 -51 -105 -114c0 -62 47 -113 105 -113c40 0 76 24 94 60z" />
    <glyph glyph-name="d" unicode="d" horiz-adv-x="677" 
d="M429 754h199v-754h-199v17c-42 -18 -85 -28 -127 -28c-150 0 -271 109 -271 283c0 178 121 283 271 283c41 0 86 -10 127 -28v227zM339 159c33 0 65 12 90 32v163c-25 20 -57 32 -90 32c-68 0 -113 -47 -113 -114c0 -72 45 -113 113 -113z" />
    <glyph glyph-name="e" unicode="e" horiz-adv-x="603" 
d="M574 219h-348c16 -47 53 -83 115 -83c41 0 71 26 98 67l120 -97c-50 -71 -140 -116 -250 -116c-165 0 -280 126 -280 282c0 157 115 283 280 283c163 0 266 -118 266 -283c0 -18 -1 -53 -1 -53zM226 329h162c0 31 -28 77 -79 77c-39 0 -75 -35 -83 -77z" />
    <glyph glyph-name="f" unicode="f" horiz-adv-x="406" 
d="M398 741v-139c-16 1 -29 1 -39 1c-76 0 -78 -21 -78 -53v-5h116v-154h-116v-404c0 -125 -81 -180 -175 -180c-43 0 -78 6 -101 12v150c77 0 77 17 77 104v318h-60v154h60v42c0 119 79 179 176 179c100 0 139 -25 140 -25z" />
    <glyph glyph-name="g" unicode="g" horiz-adv-x="677" 
d="M429 545h199v-419c0 -144 -77 -317 -301 -317c-142 0 -170 13 -259 38l37 137c51 -13 111 -32 172 -32c69 0 120 24 141 91c0 1 1 2 1 3c-39 -15 -79 -23 -117 -23c-150 0 -271 102 -271 267c0 166 121 265 271 265c42 0 84 -9 127 -26v16zM227 289c0 -63 43 -98 112 -98
c33 0 65 11 90 29v138c-24 18 -57 28 -90 28c-69 0 -112 -40 -112 -97z" />
    <glyph glyph-name="h" unicode="h" horiz-adv-x="634" 
d="M354 555c176 0 233 -71 233 -257v-298h-199v298c0 61 -14 88 -71 88c-27 0 -52 -9 -69 -24v-362h-199v754h199v-219c35 13 70 20 106 20z" />
    <glyph glyph-name="i" unicode="i" 
d="M53 0v545h199v-545h-199zM152 577c-60 0 -109 48 -109 107s49 107 109 107c59 0 108 -48 108 -107s-49 -107 -108 -107z" />
    <glyph glyph-name="j" unicode="j" horiz-adv-x="308" 
d="M53 77v468h199v-557c0 -119 -78 -179 -173 -179c-45 0 -80 5 -103 11v150c77 0 77 17 77 107zM152 577c-60 0 -109 48 -109 107s49 107 109 107s108 -48 108 -107s-48 -107 -108 -107z" />
    <glyph glyph-name="k" unicode="k" horiz-adv-x="602" 
d="M419 330l191 -330h-219l-102 180l-41 -52v-128h-199v754h199v-368l128 159h228z" />
    <glyph glyph-name="l" unicode="l" 
d="M53 0v754h199v-754h-199z" />
    <glyph glyph-name="m" unicode="m" horiz-adv-x="969" 
d="M692 555c175 0 233 -71 233 -257v-298h-199v298c0 61 -15 88 -72 88c-26 0 -51 -10 -70 -25c1 -7 2 -17 2 -65v-296h-199v298c0 61 -13 88 -68 88c-28 0 -52 -10 -70 -27v-359h-199v545h199v-19c35 19 71 29 107 29c89 0 145 -17 181 -59c47 37 101 59 155 59z" />
    <glyph glyph-name="n" unicode="n" horiz-adv-x="634" 
d="M354 555c176 0 233 -71 233 -257v-298h-199v298c0 61 -14 88 -71 88c-27 0 -52 -10 -69 -27v-359h-199v545h199v-19c35 19 70 29 106 29z" />
    <glyph glyph-name="o" unicode="o" horiz-adv-x="654" 
d="M326 555c165 0 299 -126 299 -283c0 -156 -134 -282 -299 -282s-299 126 -299 282c0 157 134 283 299 283zM326 159c58 0 105 51 105 113c0 63 -47 114 -105 114s-105 -51 -105 -114c0 -62 47 -113 105 -113z" />
    <glyph glyph-name="p" unicode="p" horiz-adv-x="676" 
d="M374 555c150 0 272 -105 272 -283c0 -174 -122 -282 -272 -282c-41 0 -85 10 -126 28v-193h-199v720h199v-18c41 18 85 28 126 28zM337 159c68 0 113 41 113 113c0 67 -45 114 -113 114c-32 0 -65 -12 -89 -32v-163c24 -20 57 -32 89 -32z" />
    <glyph glyph-name="q" unicode="q" horiz-adv-x="676" 
d="M429 545h199v-720h-199v193c-43 -18 -86 -28 -128 -28c-150 0 -270 108 -270 282c0 178 120 283 270 283c42 0 85 -10 128 -28v18zM226 272c0 -72 44 -113 113 -113c33 0 64 12 90 32v163c-26 20 -57 32 -90 32c-69 0 -113 -47 -113 -114z" />
    <glyph glyph-name="r" unicode="r" horiz-adv-x="438" 
d="M249 545v-50c41 36 95 57 165 61v-209c-19 3 -36 4 -51 4c-97 0 -114 -55 -114 -99v-252h-199v545h199z" />
    <glyph glyph-name="s" unicode="s" horiz-adv-x="513" 
d="M23 43l73 139c73 -31 112 -44 174 -44c24 0 37 9 37 21c0 13 -2 19 -74 36c-116 26 -201 66 -201 183c0 105 80 177 213 177c96 0 165 -23 222 -45l-67 -138c-49 18 -111 34 -159 34c-31 0 -33 -6 -33 -18c0 -15 15 -24 87 -40c126 -28 191 -73 191 -178
c0 -115 -91 -180 -222 -180c-98 0 -151 8 -241 53z" />
    <glyph glyph-name="t" unicode="t" horiz-adv-x="434" 
d="M402 391h-118v-137c0 -83 0 -103 67 -103c13 0 29 0 49 1v-139c1 1 -46 -23 -143 -23c-96 0 -172 59 -172 179v222h-65v154h65v209h199v-209h118v-154z" />
    <glyph glyph-name="u" unicode="u" horiz-adv-x="633" 
d="M385 545h199v-545h-199v19c-35 -19 -70 -29 -106 -29c-175 0 -233 71 -233 257v298h199v-298c0 -61 15 -88 71 -88c28 0 52 10 69 27v359z" />
    <glyph glyph-name="v" unicode="v" horiz-adv-x="626" 
d="M410 545h207l-257 -545h-93l-258 545h207l98 -223z" />
    <glyph glyph-name="w" unicode="w" horiz-adv-x="862" 
d="M655 545h195l-199 -545h-96l-124 269l-125 -269h-94l-200 545h196l77 -234l99 234h93l100 -234z" />
    <glyph glyph-name="x" unicode="x" horiz-adv-x="590" 
d="M295 120l-78 -120h-211l179 282l-175 263h220l65 -119l65 119h220l-176 -263l180 -282h-212z" />
    <glyph glyph-name="y" unicode="y" horiz-adv-x="627" 
d="M415 545h203l-222 -574c-42 -110 -162 -163 -271 -163c-38 0 -68 2 -93 4l27 140h17c50 0 98 7 124 48l-191 545h208l91 -306h2z" />
    <glyph glyph-name="z" unicode="z" horiz-adv-x="561" 
d="M544 455l-233 -300h223v-155h-517v90l232 301h-209v154h504v-90z" />
    <glyph glyph-name="braceleft" unicode="{" horiz-adv-x="497" 
d="M459 711v-120c-116 0 -122 -42 -122 -130v-62c0 -68 -23 -103 -83 -122c60 -18 83 -55 83 -123v-61c0 -89 6 -130 122 -130v-120c-155 0 -273 15 -273 172v7c0 146 -2 184 -153 184v141c151 0 153 38 153 184v8c0 158 118 172 273 172z" />
    <glyph glyph-name="bar" unicode="|" horiz-adv-x="362" 
d="M105 -128v926h152v-926h-152z" />
    <glyph glyph-name="braceright" unicode="}" horiz-adv-x="497" 
d="M39 591v120c154 0 273 -14 273 -172v-8c0 -146 2 -184 152 -184v-141c-150 0 -152 -38 -152 -184v-7c0 -157 -119 -172 -273 -172v120c115 0 121 40 121 129v62c0 68 23 105 84 123c-61 19 -84 54 -84 122v63c0 89 -6 129 -121 129z" />
    <glyph glyph-name="asciitilde" unicode="~" horiz-adv-x="508" 
d="M125 215l-84 9v3c0 110 56 174 125 174c61 0 124 -38 155 -38c28 0 46 25 60 55l85 -11v-3c0 -104 -56 -174 -126 -174c-60 0 -124 38 -155 38c-27 0 -47 -23 -60 -53z" />
    <glyph glyph-name="quotesinglbase" unicode="&#x201a;" horiz-adv-x="290" 
d="M136 198c57 0 101 -38 101 -115c0 -79 -23 -202 -189 -202l-26 75c69 0 87 19 94 44c-46 9 -81 49 -81 98c0 55 45 100 101 100z" />
    <glyph glyph-name="florin" unicode="&#x192;" horiz-adv-x="553" 
d="M529 731v-139c-23 2 -41 2 -54 2c-61 0 -65 -19 -80 -87l-2 -9h87v-155h-118l-22 -123c-22 -120 -114 -181 -208 -181c-45 0 -71 11 -71 11v151c74 0 80 34 99 119l4 18v5h-58v155h88l16 77c25 120 111 180 208 180c98 0 111 -24 111 -24z" />
    <glyph glyph-name="quotedblbase" unicode="&#x201e;" horiz-adv-x="544" 
d="M137 198c57 0 101 -38 101 -115c0 -79 -23 -202 -189 -202l-26 75c68 0 87 19 93 44c-45 9 -80 49 -80 98c0 55 45 100 101 100zM411 198c57 0 101 -38 101 -115c0 -79 -23 -202 -189 -202l-26 75c69 0 87 19 94 44c-46 9 -80 49 -80 98c0 55 45 100 100 100z" />
    <glyph glyph-name="ellipsis" unicode="&#x2026;" horiz-adv-x="862" 
d="M146 203c59 0 108 -48 108 -107s-49 -106 -108 -106c-60 0 -109 47 -109 106s49 107 109 107zM433 203c59 0 107 -48 107 -107s-48 -106 -107 -106c-60 0 -109 47 -109 106s49 107 109 107zM719 203c60 0 108 -48 108 -107s-48 -106 -108 -106s-109 47 -109 106
s49 107 109 107z" />
    <glyph glyph-name="dagger" unicode="&#x2020;" horiz-adv-x="410" 
d="M370 601v-91l-102 5h-22v-119l6 -139h-92l6 139l-1 119h-21l-103 -5v90l103 -5h20l-4 105h92l-5 -105h21z" />
    <glyph glyph-name="daggerdbl" unicode="&#x2021;" horiz-adv-x="430" 
d="M255 239l1 -55h21l103 5v-90l-103 5h-21l5 -104h-91l5 104h-21l-103 -6v91l102 -5h22v55l-5 113l5 114v55h-21l-103 -5v89l102 -5h21l-5 106h92l-5 -106h21l103 6v-90l-104 5h-20v-55l5 -114z" />
    <glyph glyph-name="circumflex" unicode="&#x2c6;" horiz-adv-x="500" 
d="M41 746l148 167h120l148 -167h-127l-82 80l-82 -80h-125z" />
    <glyph glyph-name="perthousand" unicode="&#x2030;" horiz-adv-x="1296" 
d="M396 516c0 -125 -81 -199 -182 -199c-100 0 -181 74 -181 199c0 126 81 199 181 199c101 0 182 -73 182 -199zM161 516c0 -42 25 -77 53 -77c30 0 54 35 54 77c0 43 -24 78 -54 78c-28 0 -53 -35 -53 -78zM682 387c100 0 182 -73 182 -199c0 -125 -82 -198 -182 -198
s-181 73 -181 198c0 126 81 199 181 199zM682 111c30 0 54 35 54 77c0 43 -24 78 -54 78c-29 0 -53 -35 -53 -78c0 -42 24 -77 53 -77zM1078 387c101 0 182 -73 182 -199c0 -125 -81 -198 -182 -198c-100 0 -181 73 -181 198c0 126 81 199 181 199zM1078 111
c29 0 54 35 54 77c0 43 -25 78 -54 78c-30 0 -53 -35 -53 -78c0 -42 23 -77 53 -77zM616 701h142l-483 -701h-142z" />
    <glyph glyph-name="guilsinglleft" unicode="&#x2039;" horiz-adv-x="361" 
d="M206 6l-176 260l176 260l127 -92l-128 -168l128 -167z" />
    <glyph glyph-name="OE" unicode="&#x152;" horiz-adv-x="1076" 
d="M36 352c0 195 158 353 354 353h629v-167h-354v-115h292v-162h-292v-94h375v-167h-662c-184 0 -342 165 -342 352zM390 177h76v351h-70c-87 0 -158 -78 -158 -176c0 -95 68 -175 152 -175z" />
    <glyph glyph-name="quoteleft" unicode="&#x2018;" horiz-adv-x="291" 
d="M141 388c-57 0 -101 38 -101 115c0 79 23 202 189 202l26 -75c-68 0 -87 -19 -94 -44c46 -9 81 -49 81 -98c0 -55 -45 -100 -101 -100z" />
    <glyph glyph-name="quoteright" unicode="&#x2019;" horiz-adv-x="292" 
d="M144 706c56 0 101 -38 101 -115c0 -79 -23 -202 -189 -202l-27 75c69 0 88 19 94 44c-46 10 -80 49 -80 99c0 55 45 99 101 99z" />
    <glyph glyph-name="quotedblleft" unicode="&#x201c;" horiz-adv-x="562" 
d="M417 384c-57 0 -101 38 -101 115c0 79 23 202 189 202l26 -75c-68 0 -87 -19 -93 -44c45 -10 80 -49 80 -99c0 -54 -45 -99 -101 -99zM143 384c-57 0 -101 38 -101 115c0 79 23 202 189 202l26 -75c-69 0 -87 -19 -94 -44c46 -10 80 -49 80 -99c0 -54 -44 -99 -100 -99z
" />
    <glyph glyph-name="quotedblright" unicode="&#x201d;" horiz-adv-x="563" 
d="M147 706c57 0 101 -38 101 -115c0 -79 -23 -202 -189 -202l-26 75c68 0 87 19 93 44c-45 10 -80 49 -80 99c0 55 45 99 101 99zM421 706c57 0 101 -38 101 -115c0 -79 -23 -202 -189 -202l-26 75c69 0 87 19 94 44c-46 10 -80 49 -80 99c0 55 44 99 100 99z" />
    <glyph glyph-name="bullet" unicode="&#x2022;" horiz-adv-x="508" 
d="M401 352c0 -81 -65 -146 -147 -146c-81 0 -148 65 -148 146s67 146 148 146c82 0 147 -65 147 -146z" />
    <glyph glyph-name="endash" unicode="&#x2013;" horiz-adv-x="528" 
d="M488 414v-162h-450v162h450z" />
    <glyph glyph-name="emdash" unicode="&#x2014;" horiz-adv-x="898" 
d="M859 414v-162h-820v162h820z" />
    <glyph glyph-name="tilde" unicode="&#x2dc;" horiz-adv-x="500" 
d="M120 729l-86 10c0 112 56 177 125 177c61 0 124 -38 156 -38c28 0 47 25 60 54l85 -10c0 -105 -56 -177 -126 -177c-60 0 -125 38 -156 38c-27 0 -45 -23 -58 -54z" />
    <glyph glyph-name="trademark" unicode="&#x2122;" horiz-adv-x="695" 
d="M287 699v-71h-90v-241h-90v241h-91v71h271zM622 699h43v-312h-90v124l-75 -95l-74 95v-124h-90v312h43l121 -155z" />
    <glyph glyph-name="guilsinglright" unicode="&#x203a;" horiz-adv-x="363" 
d="M157 526l176 -260l-176 -260l-127 93l128 167l-128 168z" />
    <glyph glyph-name="oe" unicode="&#x153;" horiz-adv-x="1000" 
d="M972 219h-348c16 -47 53 -83 115 -83c41 0 71 26 98 67l120 -97c-50 -71 -140 -116 -250 -116c-77 0 -143 27 -192 72c-50 -47 -116 -73 -195 -73c-165 0 -291 127 -291 283c0 155 127 283 295 283c78 0 143 -26 192 -72c48 45 114 72 191 72c163 0 266 -118 266 -283
c0 -18 -1 -53 -1 -53zM326 156c63 0 101 52 101 116c0 63 -42 116 -103 116c-62 0 -101 -52 -101 -116c0 -63 44 -116 103 -116zM624 329h162c0 31 -28 77 -79 77c-39 0 -75 -35 -83 -77z" />
    <glyph glyph-name="exclamdown" unicode="&#xa1;" horiz-adv-x="333" 
d="M97 440h140l33 -440h-206zM166 501c-59 0 -107 48 -107 107s48 106 107 106c61 0 109 -47 109 -106s-48 -107 -109 -107z" />
    <glyph glyph-name="cent" unicode="&#xa2;" horiz-adv-x="575" 
d="M414 478l-49 -254c30 12 54 28 73 62l124 -102c-53 -64 -135 -110 -226 -110l-15 -74h-125l19 96c-108 44 -184 148 -184 269c0 159 130 290 294 291l12 58h123l-15 -80c47 -20 87 -50 117 -87l-124 -102c-7 12 -15 23 -24 33zM200 365c0 -45 18 -86 47 -113l49 253
c-56 -16 -96 -72 -96 -140z" />
    <glyph glyph-name="sterling" unicode="&#xa3;" horiz-adv-x="639" 
d="M604 162v-162h-561v88l98 64c-4 28 -8 57 -11 88h-88v142h78c-1 11 -1 24 -1 35c0 220 116 298 254 298c94 0 176 -51 219 -127l-128 -111c-16 30 -43 56 -85 56c-26 0 -55 -21 -55 -79c0 -24 1 -48 2 -72h204v-142h-191l10 -78h255z" />
    <glyph glyph-name="Euro" unicode="&#x20ac;" horiz-adv-x="704" 
d="M424 172c73 0 93 28 121 65l138 -115c-59 -87 -153 -132 -259 -132c-147 0 -271 88 -311 249h-83v87h71c0 9 -1 18 -1 26c0 9 1 17 1 25h-71v88h83c40 160 164 249 311 249c106 0 200 -46 259 -132l-138 -116c-28 37 -48 67 -121 67c-36 0 -69 -27 -92 -68h131v-88h-156
c-1 -8 -2 -16 -2 -25c0 -8 1 -17 2 -26h156v-87h-131c23 -42 56 -67 92 -67z" />
    <glyph glyph-name="yen" unicode="&#xa5;" horiz-adv-x="732" 
d="M735 705l-195 -346h116v-123h-186v-51h186v-124h-186v-61h-206v61h-186v124h186v51h-186v123h115l-194 346h233l134 -256l136 256h233z" />
    <glyph glyph-name="section" unicode="&#xa7;" horiz-adv-x="626" 
d="M580 340c0 -46 -43 -88 -73 -94c16 -18 25 -42 25 -80c0 -114 -90 -180 -223 -180c-99 0 -152 9 -241 54l73 128c74 -31 114 -49 171 -49c36 0 53 22 53 34c0 56 -319 32 -319 192c0 48 28 84 74 109c-27 21 -43 52 -43 98c0 88 79 161 213 161c95 0 201 -23 258 -46
l-67 -138c-49 19 -133 41 -195 41c-33 0 -38 -11 -38 -22c0 -13 17 -22 90 -41c125 -33 242 -47 242 -167zM230 404c-24 -6 -37 -24 -37 -38c0 -38 105 -56 187 -69c30 5 54 14 54 36c0 28 -161 55 -204 71z" />
    <glyph glyph-name="dieresis" unicode="&#xa8;" horiz-adv-x="500" 
d="M361 906c48 0 88 -39 88 -86c0 -48 -40 -87 -88 -87c-49 0 -89 39 -89 87c0 47 40 86 89 86zM141 906c48 0 88 -39 88 -86c0 -48 -40 -87 -88 -87c-49 0 -89 39 -89 87c0 47 40 86 89 86z" />
    <glyph glyph-name="copyright" unicode="&#xa9;" horiz-adv-x="830" 
d="M416 718c203 0 361 -166 361 -364c0 -197 -159 -364 -363 -364c-203 0 -361 166 -361 364c0 197 159 364 363 364zM725 354c0 174 -133 314 -309 314c-178 0 -312 -142 -312 -316c0 -173 135 -313 310 -313c177 0 311 142 311 315zM418 250c30 0 57 18 73 46l86 -74
c-37 -48 -95 -78 -159 -78c-113 0 -205 94 -205 210s92 209 205 209c64 0 122 -30 159 -78l-86 -74c-16 29 -43 46 -73 46c-49 0 -89 -46 -89 -103c0 -58 40 -104 89 -104z" />
    <glyph glyph-name="guillemotleft" unicode="&#xab;" horiz-adv-x="638" 
d="M470 6l-177 260l177 260l127 -92l-128 -168l128 -167zM203 6l-176 260l176 260l128 -92l-128 -168l128 -167z" />
    <glyph glyph-name="registered" unicode="&#xae;" horiz-adv-x="830" 
d="M417 718c203 0 361 -166 361 -364c0 -197 -159 -364 -363 -364c-203 0 -361 166 -361 364c0 197 159 364 363 364zM726 354c0 174 -133 314 -309 314c-179 0 -312 -142 -312 -316c0 -173 134 -313 310 -313c177 0 311 142 311 315zM614 219l-80 -81l-106 103
c-4 -1 -9 -1 -13 -1h-58v-86h-117v407h192c127 0 171 -75 171 -155c0 -56 -16 -100 -51 -128zM357 468v-146h46c58 0 76 36 76 71c0 38 -17 75 -66 75h-56z" />
    <glyph glyph-name="macron" unicode="&#xaf;" horiz-adv-x="500" 
d="M92 752v120h316v-120h-316z" />
    <glyph glyph-name="degree" unicode="&#xb0;" horiz-adv-x="472" 
d="M236 364c-99 0 -182 80 -182 178c0 97 86 178 182 178s182 -81 182 -180c0 -96 -83 -176 -182 -176zM236 459c46 0 79 36 79 83c0 46 -35 82 -79 82c-45 0 -80 -37 -80 -84c0 -45 34 -81 80 -81z" />
    <glyph glyph-name="acute" unicode="&#xb4;" horiz-adv-x="500" 
d="M437 916l-197 -170h-116l101 187z" />
    <glyph glyph-name="paragraph" unicode="&#xb6;" horiz-adv-x="599" 
d="M319 700h219v-700h-195v217h-21c-175 0 -301 84 -301 241c0 155 118 242 298 242zM345 434v84h-13c-38 0 -65 -9 -65 -43c0 -28 22 -41 52 -41h26z" />
    <glyph glyph-name="periodcentered" unicode="&#xb7;" horiz-adv-x="292" 
d="M255 313c0 -59 -48 -107 -109 -107c-60 0 -108 48 -108 107s48 107 108 107c61 0 109 -48 109 -107z" />
    <glyph glyph-name="cedilla" unicode="&#xb8;" horiz-adv-x="429" 
d="M121 -79l78 80h115l-21 -53s19 -17 19 -46c0 -89 -130 -92 -200 -92h-16l-13 62h19c32 0 85 1 85 27c0 14 -29 22 -66 22z" />
    <glyph glyph-name="guillemotright" unicode="&#xbb;" horiz-adv-x="639" 
d="M607 266l-176 -260l-127 93l128 167l-128 168l127 92zM342 266l-176 -260l-127 93l128 167l-128 168l127 92z" />
    <glyph glyph-name="questiondown" unicode="&#xbf;" horiz-adv-x="540" 
d="M276 -11c-153 0 -257 86 -257 230c0 105 73 192 217 192l5 56h139l11 -128l-17 -45h-68c-45 0 -106 -18 -106 -76c0 -39 39 -62 70 -62c66 0 130 11 186 36l66 -152c-84 -42 -144 -51 -246 -51zM311 501c-61 0 -109 48 -109 107c0 60 48 107 109 107
c60 0 108 -47 108 -107c0 -59 -48 -107 -108 -107z" />
    <glyph glyph-name="AE" unicode="&#xc6;" horiz-adv-x="1067" 
d="M657 167h374v-167h-573v113h-203l-47 -113h-215l343 705h674v-167h-353v-115h291v-162h-291v-94zM432 521l-104 -246h130v246h-26z" />
    <glyph glyph-name="Eth" unicode="&#xd0;" horiz-adv-x="852" 
d="M66 272v160h79v273h316c196 0 355 -158 355 -353c0 -187 -147 -352 -332 -352h-339v272h-79zM344 178h122c82 0 148 80 148 174c0 96 -69 175 -153 175h-117v-95h117v-160h-117v-94z" />
    <glyph glyph-name="Oslash" unicode="&#xd8;" horiz-adv-x="829" 
d="M30 0l98 113c-57 64 -92 148 -92 239c0 200 169 362 377 362c69 0 134 -18 190 -49l34 40h166l-103 -118c56 -63 90 -146 90 -235c0 -200 -168 -362 -377 -362c-68 0 -131 16 -186 46l-31 -36h-166zM245 352c0 -31 6 -59 16 -85l214 252c-19 8 -40 13 -62 13
c-92 0 -168 -81 -168 -180zM413 172c94 0 169 80 169 180c0 28 -6 56 -15 81l-212 -251c17 -7 37 -10 58 -10z" />
    <glyph glyph-name="Thorn" unicode="&#xde;" horiz-adv-x="673" 
d="M60 0v704h204v-83h98c177 0 294 -94 294 -267c0 -180 -128 -271 -303 -271h-89v-83h-204zM264 244h85c64 0 103 42 103 108c0 73 -40 107 -106 107h-82v-215z" />
    <glyph glyph-name="germandbls" unicode="&#xdf;" horiz-adv-x="679" 
d="M530 416c74 -36 118 -95 118 -171c0 -184 -132 -255 -290 -255c-6 0 -31 2 -36 3v158c7 -1 14 -1 21 -1c60 0 109 31 109 95c0 51 -37 82 -100 82h-16v144c49 1 64 42 64 73c0 37 -31 66 -74 66c-62 0 -78 -45 -78 -69v-716h-199v677c0 164 125 262 276 262
s261 -83 261 -231c0 -46 -20 -87 -56 -117z" />
    <glyph glyph-name="ae" unicode="&#xe6;" horiz-adv-x="1081" 
d="M1053 219h-348c16 -47 53 -83 115 -83c41 0 71 26 98 67l120 -97c-50 -71 -140 -116 -250 -116c-60 0 -114 16 -157 45v-35h-199v27c-41 -23 -84 -37 -128 -37c-149 0 -270 108 -270 282c0 178 121 283 270 283c42 0 86 -11 128 -31v21h199v-31l-6 -8
c45 31 100 49 163 49c163 0 266 -118 266 -283c0 -18 -1 -53 -1 -53zM432 191v163c-25 20 -58 35 -90 35c-68 0 -118 -50 -118 -117c0 -72 50 -116 118 -116c32 0 65 15 90 35zM705 329h162c0 31 -28 77 -79 77c-39 0 -75 -35 -83 -77z" />
    <glyph glyph-name="eth" unicode="&#xf0;" horiz-adv-x="645" 
d="M136 754h212c15 -19 27 -38 41 -56l108 37l64 -93l-100 -36c95 -123 155 -233 155 -367c-11 -140 -141 -249 -300 -249c-165 0 -299 119 -299 267c0 125 104 243 269 243c13 0 26 -1 39 -2l-21 28c-5 7 -9 13 -13 21l-138 -47l-68 92l136 49zM316 150
c58 0 105 47 105 107c0 59 -47 107 -105 107s-104 -48 -104 -107c0 -60 46 -107 104 -107z" />
    <glyph glyph-name="oslash" unicode="&#xf8;" horiz-adv-x="655" 
d="M14 0l81 91c-43 49 -68 112 -68 181c0 157 134 283 299 283c55 0 108 -14 153 -39l26 30h140l-87 -95c42 -49 67 -111 67 -179c0 -156 -134 -282 -299 -282c-54 0 -105 13 -148 37l-24 -27h-140zM326 159c58 0 105 51 105 113c0 12 -1 24 -3 35l-128 -145
c9 -3 17 -3 26 -3zM221 272c0 -21 5 -37 5 -37l130 146c-9 4 -20 5 -30 5c-58 0 -105 -51 -105 -114z" />
    <glyph glyph-name="thorn" unicode="&#xfe;" horiz-adv-x="676" 
d="M374 555c150 0 272 -105 272 -283c0 -174 -122 -282 -272 -282c-41 0 -85 10 -126 28v-193h-199v929h199v-227c41 18 85 28 126 28zM337 159c68 0 113 41 113 113c0 67 -45 114 -113 114c-32 0 -65 -12 -89 -32v-163c24 -20 57 -32 89 -32z" />
    <glyph glyph-name="intelligentdesign" horiz-adv-x="967" 
d="M652 619c67 -27 114 -93 114 -169c0 -77 -47 -143 -114 -170c-27 -67 -93 -114 -170 -114s-142 47 -170 114c-67 27 -114 93 -114 170c0 76 47 142 114 169c28 67 93 114 170 114s142 -47 170 -114zM504 471h112c0 65 -49 120 -112 131v-131zM504 428v-131
c63 12 112 66 112 131h-112zM461 294v134h-69v-134h69zM461 471v134h-69v-134h69zM286 111c26 0 47 -20 47 -45s-21 -46 -47 -46s-47 21 -47 46s21 45 47 45zM678 48c4 -4 9 -7 15 -10l-9 -21c-13 5 -23 13 -32 24h-15v-19h-24v88h41c27 0 36 -16 36 -34
c0 -12 -4 -22 -12 -28zM604 66c0 -24 -18 -44 -41 -44h-33v88h30c25 0 44 -20 44 -44zM492 64v46h24v-88h-11l-47 45v-45h-24v88h11zM398 109h24v-52c0 -22 -19 -37 -41 -37c-21 0 -41 15 -41 37v52h24v-46c0 -16 6 -21 17 -21s17 5 17 21v46zM732 77l18 32h27l-33 -58v-29
h-24v29l-33 58h27zM234 110v-20h-18v-32h17v-17h-17v-19h-24v19h-5v17h5v52h42zM286 42c12 0 22 11 22 24s-10 23 -22 23c-13 0 -23 -10 -23 -23s10 -24 23 -24zM650 -134c0 -12 -11 -21 -21 -21h-12v42h12c12 0 21 -10 21 -21zM554 43h7c11 0 19 10 19 23
c0 12 -9 22 -20 22h-6v-45zM907 -144l10 -11h-6l-8 9h-10v-9h-4v42h11c9 0 16 -8 16 -16c0 -6 -3 -12 -9 -15zM650 90h-13v-32h11c12 1 17 6 17 16c0 8 -4 16 -15 16zM629 -151c9 0 17 8 17 17c0 10 -8 17 -17 17h-8v-34h8zM145 -149l12 37h4l-14 -42h-4l-9 35l-8 -35h-4
l-14 42h4l12 -37l8 37h4zM207 -149l12 37h4l-14 -42h-4l-9 35l-8 -35h-4l-14 42h4l12 -37l8 37h4zM85 -149l12 37h4l-14 -42h-4l-9 35l-8 -35h-4l-14 42h4l12 -37l8 37h4zM566 -148v35h4v-42h-4l-25 36v-36h-4v42h4zM819 -148v35h4v-42h-4l-25 36v-36h-4v42h4zM288 -148v35
h4v-42h-4l-25 36v-36h-4v42h4zM479 -142v4h14v-11s-6 -6 -16 -6c-13 0 -22 9 -22 21s10 22 21 22c7 0 12 -3 16 -7l-3 -3c-3 4 -8 6 -13 6c-9 0 -17 -8 -17 -18c0 -9 8 -17 18 -17c7 0 12 4 12 4v5h-10zM766 -142v4h14v-11s-6 -6 -16 -6c-13 0 -22 9 -22 21s10 22 21 22
c7 0 12 -3 16 -7l-3 -3c-3 4 -8 6 -13 6c-9 0 -17 -8 -17 -18c0 -9 8 -17 18 -17c7 0 12 4 12 4v5h-10zM866 -142v4h14v-11s-6 -6 -16 -6c-13 0 -22 9 -22 21s10 22 21 22c7 0 12 -3 16 -7l-3 -3c-3 4 -8 6 -13 6c-9 0 -17 -8 -17 -18c0 -9 8 -17 18 -17c7 0 12 4 12 4v5
h-10zM341 -113h26v-4h-22v-18h20v-4h-20v-12h22v-4h-26v42zM659 -113h26v-4h-22v-18h20v-4h-20v-12h22v-4h-26v42zM502 -113h26v-4h-22v-18h20v-4h-20v-12h22v-4h-26v42zM893 -142h7c7 1 12 7 12 13c0 7 -6 12 -12 12h-7v-25zM708 -131c8 -3 11 -7 11 -12
c0 -7 -5 -12 -12 -12s-13 4 -15 9l3 2c2 -4 6 -7 12 -7c4 0 8 3 8 8c0 3 -2 6 -8 8c-10 4 -12 7 -12 12c0 6 5 11 11 11c5 0 9 -3 11 -7l-3 -2c-2 3 -4 5 -8 5c-3 0 -7 -3 -7 -7s3 -6 9 -8zM314 -117h-13v4h30v-4h-13v-38h-4v38zM591 -117h-13v4h30v-4h-13v-38h-4v38z
M409 -113h4v-38h20v-4h-24v42zM376 -113h4v-38h20v-4h-24v42zM244 -113h4v-42h-4v42zM442 -113h4v-42h-4v42zM729 -113h4v-42h-4v42zM225 -152c0 2 2 4 4 4s4 -2 4 -4s-2 -4 -4 -4s-4 2 -4 4zM830 -152c0 2 2 4 4 4s4 -2 4 -4s-2 -4 -4 -4s-4 2 -4 4z" />
    <glyph glyph-name="uni00AD" unicode="&#xad;" horiz-adv-x="408" 
d="M369 414v-162h-330v162h330z" />
    <glyph glyph-name="onesuperior" unicode="&#xb9;" horiz-adv-x="420" 
d="M240 705h53v-406h-118v296l-61 -13l-23 90z" />
    <glyph glyph-name="threesuperior" unicode="&#xb3;" horiz-adv-x="415" 
d="M344 653l-90 -116c57 -19 98 -48 98 -113c0 -82 -65 -131 -163 -131c-64 0 -102 6 -155 30l42 87c41 -17 78 -21 117 -21c17 0 45 11 45 36c0 8 -1 44 -68 44h-43l-21 48l72 92h-124v95h290v-51z" />
    <glyph glyph-name="twosuperior" unicode="&#xb2;" horiz-adv-x="415" 
d="M263 396h102v-97h-322v49c73 104 211 130 211 205c0 32 -23 58 -54 58c-18 0 -54 -13 -54 -60h-103v9c0 90 74 155 160 155c85 0 159 -67 159 -155c0 -59 -36 -129 -99 -164z" />
    <glyph glyph-name="KB" unicode="&#xa4;" horiz-adv-x="973" 
d="M651 619c67 -27 114 -93 114 -169c0 -77 -47 -143 -114 -170c-27 -67 -93 -114 -169 -114c-77 0 -143 47 -170 114c-67 27 -114 93 -114 170c0 76 47 142 114 169c27 67 93 114 170 114c76 0 142 -47 169 -114zM503 294h35c42 0 77 35 77 78c0 22 -9 42 -24 56h-88v-134z
M503 471h88c15 14 24 34 24 56c0 43 -35 78 -77 78h-35v-134zM391 363l69 -69v134h-112v-134h43v69zM348 471h112v134l-69 -69v69h-43v-134zM777 75c10 -4 17 -14 17 -26c0 -14 -9 -27 -27 -27h-47v88h39c19 0 26 -9 26 -19c0 -7 -3 -12 -8 -16zM159 66
c0 -24 -18 -44 -41 -44h-33v88h30c25 0 44 -20 44 -44zM690 66c0 -24 -18 -44 -41 -44h-33v88h30c25 0 44 -20 44 -44zM504 64v46h24v-88h-11l-47 45v-45h-24v88h11zM396 66h41v-33c-10 -8 -25 -12 -39 -13c-26 0 -47 21 -47 46s21 45 47 45c15 0 27 -5 36 -13l-16 -16
c-5 4 -12 7 -20 7c-12 0 -22 -10 -22 -23c0 -14 10 -25 22 -25c5 0 10 2 14 4v4h-16v17zM238 29l9 18c11 -5 20 -7 30 -7c7 0 10 3 10 6c0 4 -3 6 -14 9c-19 4 -33 9 -33 28c0 16 12 28 33 28c15 0 27 -4 36 -7l-10 -19c-8 3 -18 6 -26 6c-6 0 -9 -3 -9 -6c0 -4 3 -6 15 -9
c20 -4 33 -11 33 -27c0 -18 -14 -29 -36 -29c-15 0 -24 2 -38 9zM563 61v-20h42v-19h-66v88h64v-20h-40v-12h27v-17h-27zM190 61v-20h42v-19h-66v88h63v-20h-39v-12h26v-17h-26zM833 77l18 32h28l-34 -58v-29h-24v29l-33 58h27zM344 22h-24v88h24v-88zM650 -134
c0 -12 -11 -21 -21 -21h-12v42h12c12 0 21 -10 21 -21zM109 43h7c11 0 19 10 19 23c0 12 -9 22 -20 22h-6v-45zM640 43h7c11 0 19 10 19 23c0 12 -9 22 -20 22h-6v-45zM907 -144l10 -11h-6l-8 9h-10v-9h-4v42h11c9 0 16 -8 16 -16c0 -6 -3 -12 -9 -15zM629 -151
c9 0 17 8 17 17c0 10 -8 17 -17 17h-8v-34h8zM207 -149l12 37h4l-14 -42h-4l-9 35l-8 -35h-4l-14 42h4l12 -37l8 37h4zM85 -149l12 37h4l-14 -42h-4l-9 35l-8 -35h-4l-14 42h4l12 -37l8 37h4zM145 -149l12 37h4l-14 -42h-4l-9 35l-8 -35h-4l-14 42h4l12 -37l8 37h4z
M566 -148v35h4v-42h-4l-25 36v-36h-4v42h4zM819 -148v35h4v-42h-4l-25 36v-36h-4v42h4zM288 -148v35h4v-42h-4l-25 36v-36h-4v42h4zM743 41h11c11 0 15 5 15 11c0 7 -6 10 -18 10h-8v-21zM866 -142v4h14v-11s-6 -6 -16 -6c-13 0 -22 9 -22 21s10 22 21 22c7 0 12 -3 16 -7
l-3 -3c-3 4 -8 6 -13 6c-9 0 -17 -8 -17 -18c0 -9 8 -17 18 -17c7 0 12 4 12 4v5h-10zM766 -142v4h14v-11s-6 -6 -16 -6c-13 0 -22 9 -22 21s10 22 21 22c7 0 12 -3 16 -7l-3 -3c-3 4 -8 6 -13 6c-9 0 -17 -8 -17 -18c0 -9 8 -17 18 -17c7 0 12 4 12 4v5h-10zM479 -142v4h14
v-11s-6 -6 -16 -6c-13 0 -22 9 -22 21s10 22 21 22c7 0 12 -3 16 -7l-3 -3c-3 4 -8 6 -13 6c-9 0 -17 -8 -17 -18c0 -9 8 -17 18 -17c7 0 12 4 12 4v5h-10zM502 -113h26v-4h-22v-18h20v-4h-20v-12h22v-4h-26v42zM659 -113h26v-4h-22v-18h20v-4h-20v-12h22v-4h-26v42z
M341 -113h26v-4h-22v-18h20v-4h-20v-12h22v-4h-26v42zM893 -142h7c7 1 12 7 12 13c0 7 -6 12 -12 12h-7v-25zM708 -131c8 -3 11 -7 11 -12c0 -7 -5 -12 -12 -12s-13 4 -15 9l3 2c2 -4 6 -7 12 -7c4 0 8 3 8 8c0 3 -2 6 -8 8c-10 4 -12 7 -12 12c0 6 5 11 11 11
c5 0 9 -3 11 -7l-3 -2c-2 3 -4 5 -8 5c-3 0 -7 -3 -7 -7s3 -6 9 -8zM591 -117h-13v4h30v-4h-13v-38h-4v38zM314 -117h-13v4h30v-4h-13v-38h-4v38zM376 -113h4v-38h20v-4h-24v42zM409 -113h4v-38h20v-4h-24v42zM758 90h-15v-11h14c5 0 7 3 7 5c0 3 -2 6 -6 6zM244 -113h4v-42
h-4v42zM729 -113h4v-42h-4v42zM442 -113h4v-42h-4v42zM830 -152c0 2 2 4 4 4s4 -2 4 -4s-2 -4 -4 -4s-4 2 -4 4zM225 -152c0 2 2 4 4 4s4 -2 4 -4s-2 -4 -4 -4s-4 2 -4 4z" />
    <glyph glyph-name="dieresistonos" unicode="&#x385;" horiz-adv-x="570" 
d="M87 747c48 0 88 -39 88 -86c0 -48 -40 -87 -88 -87c-49 0 -88 39 -88 87c0 47 39 86 88 86zM481 747c48 0 87 -39 87 -86c0 -48 -39 -87 -87 -87c-49 0 -89 39 -89 87c0 47 40 86 89 86zM203 589l46 214l148 -34l-95 -180h-99z" />
    <glyph glyph-name="tonos" unicode="&#x384;" horiz-adv-x="413" 
d="M361 706l-196 -170h-116l100 187z" />
    <glyph glyph-name="Alpha" unicode="&#x391;" horiz-adv-x="800" 
d="M581 0l-50 113h-263l-49 -113h-214l347 705h96l348 -705h-215zM400 414l-60 -139h120z" />
    <glyph glyph-name="Beta" unicode="&#x392;" horiz-adv-x="716" 
d="M553 552c0 -46 -20 -89 -51 -109c106 -17 189 -108 189 -220c0 -117 -74 -223 -213 -223h-418v705h343c83 0 150 -71 150 -153zM259 538v-76h63c35 0 51 16 51 38c0 20 -12 38 -49 38h-65zM260 167h100c87 0 116 28 116 78c0 36 -31 75 -115 75h-101v-153z" />
    <glyph glyph-name="Gamma" unicode="&#x393;" horiz-adv-x="620" 
d="M598 705v-167h-333v-538h-205v705h538z" />
    <glyph glyph-name="Epsilon" unicode="&#x395;" horiz-adv-x="669" 
d="M259 167h374v-167h-573v705h552v-167h-353v-115h291v-162h-291v-94z" />
    <glyph glyph-name="Zeta" unicode="&#x396;" horiz-adv-x="701" 
d="M663 705v-88l-331 -450h331v-167h-624v84l334 454h-323v167h613z" />
    <glyph glyph-name="Eta" unicode="&#x397;" horiz-adv-x="763" 
d="M505 705h198v-705h-198v211h-246v-211h-199v705h199v-327h246v327z" />
    <glyph glyph-name="Theta" unicode="&#x398;" horiz-adv-x="829" 
d="M413 714c208 0 377 -162 377 -362s-169 -362 -377 -362s-377 162 -377 362s169 362 377 362zM413 172c94 0 169 80 169 180c0 99 -75 180 -169 180c-92 0 -168 -81 -168 -180c0 -100 76 -180 168 -180zM315 271v162h196v-162h-196z" />
    <glyph glyph-name="Iota" unicode="&#x399;" horiz-adv-x="333" 
d="M269 705v-705h-205v705h205z" />
    <glyph glyph-name="Kappa" unicode="&#x39a;" horiz-adv-x="733" 
d="M429 352l314 -352h-268l-177 202l-39 -48v-154h-199v705h199v-271l228 271h245z" />
    <glyph glyph-name="Lambda" unicode="&#x39b;" horiz-adv-x="784" 
d="M438 705l331 -705h-214l-163 394l-163 -394h-214l331 705h92z" />
    <glyph glyph-name="Mu" unicode="&#x39c;" horiz-adv-x="868" 
d="M711 705h97v-705h-205v277l-169 -212l-169 212v-277h-205v705h96l278 -348z" />
    <glyph glyph-name="Nu" unicode="&#x39d;" horiz-adv-x="786" 
d="M521 705h205v-705h-96l-365 349v-349h-205v705h96l365 -349v349z" />
    <glyph glyph-name="Xi" unicode="&#x39e;" horiz-adv-x="710" 
d="M47 167h631v-167h-631v167zM673 705v-167h-621v167h621zM610 271h-495v162h495v-162z" />
    <glyph glyph-name="Omicron" unicode="&#x39f;" horiz-adv-x="829" 
d="M413 714c209 0 377 -162 377 -362s-168 -362 -377 -362c-208 0 -377 162 -377 362s169 362 377 362zM413 172c94 0 169 80 169 180c0 99 -75 180 -169 180c-92 0 -168 -81 -168 -180c0 -100 76 -180 168 -180z" />
    <glyph glyph-name="Pi" unicode="&#x3a0;" horiz-adv-x="750" 
d="M61 705h631v-705h-199v538h-233v-538h-199v705z" />
    <glyph glyph-name="Rho" unicode="&#x3a1;" horiz-adv-x="675" 
d="M60 705h303c219 0 294 -129 294 -269c0 -204 -133 -285 -324 -285h-68v-151h-205v705zM265 312h46c101 0 131 55 131 109c0 59 -28 117 -114 117h-63v-226z" />
    <glyph glyph-name="Sigma" unicode="&#x3a3;" horiz-adv-x="693" 
d="M336 167h321v-167h-621v88l212 264l-196 265v88h595v-167h-305l136 -186z" />
    <glyph glyph-name="Tau" unicode="&#x3a4;" horiz-adv-x="660" 
d="M640 705v-167h-206v-538h-205v538h-207v167h618z" />
    <glyph glyph-name="Upsilon" unicode="&#x3a5;" horiz-adv-x="728" 
d="M499 705h233l-266 -468v-237h-205v237l-265 468h233l135 -256z" />
    <glyph glyph-name="Phi" unicode="&#x3a6;" horiz-adv-x="916" 
d="M884 362c0 -171 -142 -311 -325 -311v-51h-199v51c-165 4 -325 119 -325 302v10c3 178 170 302 325 302v40h199v-40c169 0 325 -134 325 -303zM233 358c0 -80 54 -135 127 -135v270c-85 -1 -127 -62 -127 -135zM559 493v-270c78 0 126 60 126 135c0 73 -41 135 -126 135z
" />
    <glyph glyph-name="Chi" unicode="&#x3a7;" horiz-adv-x="732" 
d="M367 506l121 199h225l-214 -348l225 -357h-231l-126 208l-127 -208h-230l225 357l-215 348h226z" />
    <glyph glyph-name="Psi" unicode="&#x3a8;" horiz-adv-x="878" 
d="M636 705h198v-258c0 -162 -140 -291 -296 -292v-155h-198v155c-156 1 -296 130 -296 292v258h199v-258c0 -66 25 -118 97 -119v377h198v-377c73 1 98 53 98 119v258z" />
    <glyph glyph-name="alpha" unicode="&#x3b1;" horiz-adv-x="680" 
d="M432 545h199v-545h-199v27c-40 -23 -83 -37 -127 -37c-149 0 -271 109 -271 283c0 177 122 283 271 283c42 0 85 -12 127 -32v21zM432 191v163c-24 20 -57 32 -90 32c-68 0 -112 -47 -112 -113c0 -73 44 -114 112 -114c33 0 66 12 90 32z" />
    <glyph glyph-name="beta" unicode="&#x3b2;" horiz-adv-x="674" 
d="M530 417c73 -28 118 -96 118 -172c0 -174 -123 -255 -274 -255c-41 0 -85 9 -126 27v-192h-199v677c0 164 125 264 275 264c152 0 262 -84 262 -233c0 -46 -20 -95 -56 -116zM325 611c-71 0 -77 -46 -77 -70v-70h91c46 0 61 32 61 73c0 43 -31 67 -75 67zM339 152
c62 0 113 21 113 93c0 51 -37 82 -100 82h-104v-137c14 -19 59 -38 91 -38z" />
    <glyph glyph-name="gamma" unicode="&#x3b3;" horiz-adv-x="626" 
d="M411 545h202l-200 -549v-171h-199v175l-205 545h203l101 -277z" />
    <glyph glyph-name="delta" unicode="&#x3b4;" horiz-adv-x="652" 
d="M545 599h-167c155 -132 246 -179 246 -351c0 -140 -140 -258 -299 -258c-165 0 -299 119 -299 267c0 134 123 225 245 235c1 0 -186 172 -186 172v90h460v-155zM325 150c58 0 105 47 105 107s-48 107 -105 107c-58 0 -105 -48 -105 -107c0 -60 47 -107 105 -107z" />
    <glyph glyph-name="epsilon" unicode="&#x3b5;" horiz-adv-x="577" 
d="M484 184l77 -123c-89 -43 -162 -71 -272 -71c-152 0 -259 41 -259 161c0 71 38 108 102 128c-51 24 -82 61 -82 116c0 125 103 160 249 160c94 0 177 -30 252 -64l-76 -116c-61 23 -110 34 -149 34c-51 0 -86 -12 -86 -39c0 -16 3 -43 86 -43h84v-102h-109
c-64 0 -78 -27 -78 -50c0 -17 18 -37 72 -37c77 0 114 15 189 46z" />
    <glyph glyph-name="pi" unicode="&#x3c0;" horiz-adv-x="627" 
d="M49 545h530v-545h-200v384h-131v-384h-199v545z" />
    <glyph glyph-name="mu" unicode="&#xb5;" horiz-adv-x="636" 
d="M388 545h199v-545h-199v14c-28 -15 -57 -24 -86 -24c-19 0 -35 4 -54 11v-176h-199v720h199v-298c0 -61 14 -88 71 -88c27 0 51 10 69 27v359z" />
    <glyph glyph-name="Omega" unicode="&#x2126;" horiz-adv-x="828" 
d="M792 380c0 -100 -49 -180 -110 -213h101v-167h-316v182c70 24 115 95 115 198c0 105 -76 167 -168 167c-94 0 -170 -62 -170 -167c0 -103 45 -174 116 -198v-182h-316v167h100c-60 33 -108 113 -108 213c0 236 168 335 378 335c208 0 378 -99 378 -335z" />
    <glyph glyph-name="Delta" unicode="&#x2206;" horiz-adv-x="793" 
d="M443 705l340 -705h-773l339 705h94zM397 405l-100 -238h199z" />
    <glyph glyph-name="uni0394" unicode="&#x394;" horiz-adv-x="793" 
d="M443 705l340 -705h-773l339 705h94zM397 405l-100 -238h199z" />
    <glyph glyph-name="uni03A9" unicode="&#x3a9;" horiz-adv-x="828" 
d="M792 380c0 -100 -49 -180 -110 -213h101v-167h-316v182c70 24 115 95 115 198c0 105 -76 167 -168 167c-94 0 -170 -62 -170 -167c0 -103 45 -174 116 -198v-182h-316v167h100c-60 33 -108 113 -108 213c0 236 168 335 378 335c208 0 378 -99 378 -335z" />
    <glyph glyph-name="uni037E" unicode="&#x37e;" horiz-adv-x="301" 
d="M150 333c-60 0 -108 48 -108 107s48 107 108 107c59 0 108 -48 108 -107s-49 -107 -108 -107zM150 203c61 0 108 -41 108 -124s-22 -215 -204 -215l-27 80c73 0 95 20 101 47c-49 10 -86 53 -86 105c0 59 48 107 108 107z" />
    <glyph glyph-name="anoteleia" unicode="&#x387;" horiz-adv-x="292" 
d="M260 440c0 -60 -49 -107 -109 -107s-108 47 -108 107c0 59 48 107 108 107s109 -48 109 -107z" />
    <glyph glyph-name="onehalf" unicode="&#xbd;" horiz-adv-x="961" 
d="M213 705h53v-406h-118v296l-61 -13l-23 90zM787 97h102v-97h-322v49c73 104 211 130 211 205c0 32 -23 58 -54 58c-16 0 -54 -13 -54 -60h-103v9c0 90 74 155 160 155c85 0 159 -67 159 -155c0 -59 -36 -129 -99 -164zM625 701h142l-483 -701h-142z" />
    <glyph glyph-name="brokenbar" unicode="&#xa6;" horiz-adv-x="362" 
d="M105 415v383h152v-383h-152zM105 -127v383h152v-383h-152z" />
    <glyph glyph-name="Q" unicode="Q" horiz-adv-x="829" 
d="M803 91l-92 -109l-84 71c-61 -40 -135 -63 -214 -63c-208 0 -377 162 -377 362s169 362 377 362s377 -162 377 -362c0 -73 -22 -142 -59 -200zM413 172c20 0 40 3 58 10l-40 34l93 109l49 -42c6 23 8 44 8 69c0 99 -76 180 -168 180c-94 0 -169 -81 -169 -180
c0 -100 75 -180 169 -180z" />
    <glyph glyph-name="notequal" unicode="&#x2260;" horiz-adv-x="639" 
d="M213 17h-141l65 130h-65v163h151l59 119h-210v163h295l72 139h139l-71 -139h58v-163h-142l-60 -119h202v-163h-286z" />
    <glyph glyph-name="infinity" unicode="&#x221e;" horiz-adv-x="862" 
d="M800 367c0 -127 -91 -200 -192 -200c-71 0 -125 34 -181 101c-55 -67 -109 -101 -180 -101c-110 0 -192 85 -192 200c0 127 92 201 192 201c71 0 125 -36 180 -102c56 66 110 102 181 102c110 0 192 -86 192 -201zM587 309c30 0 56 15 56 58s-26 58 -56 58
c-42 0 -61 -26 -89 -58c28 -32 47 -58 89 -58zM268 309c42 0 61 26 88 58c-27 33 -46 58 -88 58c-30 0 -56 -15 -56 -58s26 -58 56 -58z" />
    <glyph glyph-name="plusminus" unicode="&#xb1;" horiz-adv-x="640" 
d="M578 527v-162h-175v-175h-164v175h-175v162h175v175h164v-175h175zM578 0h-514v162h514v-162z" />
    <glyph glyph-name="lessequal" unicode="&#x2264;" horiz-adv-x="628" 
d="M563 162v-162h-499v162h499zM563 762v-184l-231 -105l231 -104v-184l-499 244v89z" />
    <glyph glyph-name="greaterequal" unicode="&#x2265;" horiz-adv-x="627" 
d="M563 162v-162h-499v162h499zM64 185v184l231 104l-231 105v184l499 -244v-89z" />
    <glyph glyph-name="dotaccent" unicode="&#x2d9;" horiz-adv-x="379" 
d="M176 906c48 0 88 -39 88 -86c0 -48 -40 -87 -88 -87c-49 0 -89 39 -89 87c0 47 40 86 89 86z" />
    <glyph glyph-name="breve" unicode="&#x2d8;" horiz-adv-x="500" 
d="M250 744c-114 0 -192 51 -201 159l116 10c13 -33 35 -56 85 -56s72 23 84 56l117 -10c-10 -108 -87 -159 -201 -159z" />
    <glyph glyph-name="uni2117" unicode="&#x2117;" horiz-adv-x="865" 
 />
    <glyph glyph-name="zeta" unicode="&#x3b6;" horiz-adv-x="568" 
d="M564 754v-119c-107 -71 -339 -274 -339 -413c0 -119 317 -42 317 -227c0 -142 -209 -191 -193 -183l-66 95c43 35 56 55 56 65c0 12 -15 16 -36 19c-130 15 -281 66 -281 214c0 137 141 309 288 394h-235v155h489z" />
    <glyph glyph-name="eta" unicode="&#x3b7;" horiz-adv-x="634" 
d="M354 555c176 0 233 -71 233 -257v-298h-199v298c0 61 -14 88 -71 88c-27 0 -52 -10 -69 -27v-359h-199v545h199v-19c35 19 70 29 106 29z" />
    <glyph glyph-name="theta" unicode="&#x3b8;" horiz-adv-x="641" 
d="M321 766c159 0 286 -146 286 -394c0 -242 -127 -382 -286 -382c-157 0 -285 140 -285 382c0 248 128 394 285 394zM321 142c70 0 98 98 99 152h-197c0 -73 44 -152 98 -152zM321 613c-69 0 -97 -105 -98 -164h197c0 79 -44 164 -99 164z" />
    <glyph glyph-name="iota" unicode="&#x3b9;" 
d="M53 0v545h199v-545h-199z" />
    <glyph glyph-name="kappa" unicode="&#x3ba;" horiz-adv-x="602" 
d="M419 330l191 -330h-219l-101 177l-42 -49v-128h-199v544h199v-158l128 159h228z" />
    <glyph glyph-name="lambda" unicode="&#x3bb;" horiz-adv-x="599" 
d="M384 573l213 -573h-213l-84 300l-75 -300h-213l208 539c-21 43 -46 80 -93 80c-18 0 -52 -5 -52 -5v145s37 7 60 7c121 0 205 -75 249 -193z" />
    <glyph glyph-name="uni03BC" unicode="&#x3bc;" horiz-adv-x="636" 
d="M388 545h199v-545h-199v14c-28 -15 -57 -24 -86 -24c-19 0 -35 4 -54 11v-176h-199v720h199v-298c0 -61 14 -88 71 -88c27 0 51 10 69 27v359z" />
    <glyph glyph-name="nu" unicode="&#x3bd;" horiz-adv-x="626" 
d="M410 545h207l-258 -545h-92l-258 545h207l98 -223z" />
    <glyph glyph-name="xi" unicode="&#x3be;" horiz-adv-x="565" 
d="M564 754v-118c-89 -20 -269 -56 -269 -136c0 -71 124 -97 215 -97v-129c-181 -2 -273 -40 -273 -74c0 -115 325 -5 325 -203c0 -37 -15 -76 -45 -106c-68 -67 -140 -80 -140 -80l-75 96c41 34 53 53 53 64s-15 18 -36 21c-132 20 -295 63 -295 211c0 81 61 131 146 160
c-45 30 -74 73 -74 130c0 43 19 78 43 106h-76v155h501z" />
    <glyph glyph-name="omicron" unicode="&#x3bf;" horiz-adv-x="654" 
d="M326 555c165 0 299 -126 299 -283c0 -156 -134 -282 -299 -282s-300 126 -300 282c0 157 135 283 300 283zM326 159c58 0 105 51 105 113c0 63 -47 114 -105 114s-105 -51 -105 -114c0 -62 47 -113 105 -113z" />
    <glyph glyph-name="rho" unicode="&#x3c1;" horiz-adv-x="657" 
d="M338 555c150 0 292 -105 292 -283c0 -174 -122 -282 -272 -282c-41 0 -84 9 -127 28v-193h-199v451c0 163 136 279 306 279zM321 159c68 0 113 41 113 113c0 67 -39 114 -108 114c-15 0 -95 -11 -95 -88v-107c25 -20 57 -32 90 -32z" />
    <glyph glyph-name="uni03C2" unicode="&#x3c2;" horiz-adv-x="566" 
d="M454 96c39 -19 65 -64 65 -109c0 -93 -112 -172 -199 -185l-66 95c51 41 70 58 70 72c0 7 -1 14 -21 19c-143 31 -275 128 -275 284c0 160 141 283 300 283c88 0 170 -42 220 -116c-43 -37 -84 -75 -127 -113c-18 36 -53 60 -93 60c-59 0 -106 -52 -106 -114
c0 -127 147 -124 232 -176z" />
    <glyph glyph-name="sigma" unicode="&#x3c3;" horiz-adv-x="665" 
d="M647 545v-154h-102c57 -36 73 -78 73 -137c0 -136 -127 -264 -292 -264s-300 126 -300 282c0 157 135 273 300 273h321zM326 159c58 0 105 51 105 113c0 63 -47 114 -105 114s-105 -51 -105 -114c0 -62 47 -113 105 -113z" />
    <glyph glyph-name="tau" unicode="&#x3c4;" horiz-adv-x="511" 
d="M490 545v-154h-135v-391h-199v391h-137v154h471z" />
    <glyph glyph-name="upsilon" unicode="&#x3c5;" horiz-adv-x="620" 
d="M576 545v-326c0 -145 -129 -229 -266 -229c-129 0 -266 78 -266 229v326h199v-301c0 -48 1 -91 67 -91c65 0 66 43 66 93v299h200z" />
    <glyph glyph-name="phi" unicode="&#x3c6;" horiz-adv-x="840" 
d="M816 267c0 -146 -142 -277 -303 -277v-165h-185v165c-162 0 -303 131 -303 277c0 121 83 222 201 270l63 -140c-56 -16 -69 -74 -69 -125c0 -64 24 -132 104 -132h4v405c42 8 86 12 129 12c182 0 359 -80 359 -290zM513 405v-265h4c80 0 104 68 104 132s-22 133 -104 133
h-4z" />
    <glyph glyph-name="chi" unicode="&#x3c7;" horiz-adv-x="590" 
d="M295 120l-78 -120h-211l179 282l-175 263h220l65 -119l65 119h220l-176 -263l180 -282h-212z" />
    <glyph glyph-name="psi" unicode="&#x3c8;" horiz-adv-x="835" 
d="M592 545h199v-326c0 -135 -97 -229 -278 -229v-165h-191v165c-186 0 -278 97 -278 229v326h199v-284c0 -55 15 -105 78 -108h1v463h191v-463h1c68 0 78 45 78 108v284z" />
    <glyph glyph-name="omega" unicode="&#x3c9;" horiz-adv-x="862" 
d="M559 382v173c151 0 274 -104 274 -283c0 -173 -90 -282 -240 -282c-96 0 -141 45 -163 101c-23 -56 -68 -101 -163 -101c-151 0 -241 109 -241 282c0 179 123 283 274 283v-173c-48 -14 -78 -56 -78 -110c0 -71 16 -113 58 -113c56 0 57 61 57 109v77h185v-77
c0 -48 0 -109 57 -109c42 0 59 42 59 113c0 54 -31 96 -79 110z" />
    <glyph glyph-name="hungarumlaut" unicode="&#x2dd;" horiz-adv-x="500" 
d="M213 754l64 117l-122 -117h-129l99 185l159 -55l30 55l174 -59l-146 -126h-129z" />
    <glyph glyph-name="ring" unicode="&#x2da;" horiz-adv-x="500" 
d="M124 770c0 66 59 124 125 124s125 -56 125 -124s-59 -124 -125 -124s-125 58 -125 124zM249 713c32 0 57 25 57 59c0 32 -26 57 -57 57c-32 0 -57 -26 -57 -59c0 -32 24 -57 57 -57z" />
    <glyph glyph-name="caron" unicode="&#x2c7;" horiz-adv-x="500" 
d="M189 746l-148 167h125l82 -80l82 80h127l-148 -167h-120z" />
    <glyph glyph-name="ogonek" unicode="&#x2db;" horiz-adv-x="500" 
d="M321 -88v-84c-19 -2 -39 -3 -56 -3c-85 0 -130 31 -130 102c0 21 12 57 31 76l124 -3c-13 -16 -20 -35 -20 -46c0 -35 30 -42 51 -42z" />
    <glyph glyph-name="logicalnot" unicode="&#xac;" horiz-adv-x="594" 
d="M547 527v-341h-164v179h-350v162h514z" />
    <glyph glyph-name="ordfeminine" unicode="&#xaa;" horiz-adv-x="513" 
d="M315 697h139v-381h-139v19c-28 -16 -59 -26 -89 -26c-125 0 -186 99 -186 198s61 198 186 198c29 0 59 -8 89 -23v15zM315 450v113c-17 15 -40 23 -63 23c-54 0 -79 -39 -79 -79s25 -80 79 -80c23 0 46 9 63 23z" />
    <glyph glyph-name="ordmasculine" unicode="&#xba;" horiz-adv-x="507" 
d="M249 705c115 0 209 -88 209 -198c0 -109 -94 -197 -209 -197c-116 0 -209 88 -209 197c0 110 93 198 209 198zM249 428c41 0 74 36 74 79c0 44 -33 80 -74 80s-74 -36 -74 -80c0 -43 33 -79 74 -79z" />
    <glyph glyph-name="onequarter" unicode="&#xbc;" horiz-adv-x="924" 
d="M213 705h53v-406h-118v296l-61 -13l-23 90zM826 169h50v-93h-50v-76h-113v76h-200l-20 48l243 283h90v-238zM713 169v72l-60 -72h60zM623 701h142l-483 -701h-142z" />
    <glyph glyph-name="threequarters" unicode="&#xbe;" horiz-adv-x="922" 
d="M54 704h290v-51l-90 -116c57 -19 98 -48 98 -113c0 -82 -65 -131 -163 -131c-64 0 -102 6 -155 30l42 87c41 -17 78 -21 117 -21c17 0 45 11 45 36c0 8 -1 44 -68 44h-43l-21 48l72 92h-124v95zM621 701h141l-483 -701h-141zM823 169h50v-93h-50v-76h-113v76h-200l-20 48
l243 283h90v-238zM710 169v72l-60 -72h60z" />
    <glyph glyph-name="minus" unicode="&#x2212;" horiz-adv-x="528" 
d="M488 414v-162h-450v162h450z" />
    <glyph glyph-name="multiply" unicode="&#xd7;" horiz-adv-x="654" 
d="M443 316l158 -159l-115 -115l-159 159l-158 -159l-117 115l159 159l-159 159l117 114l158 -159l159 159l115 -114z" />
    <glyph glyph-name="divide" unicode="&#xf7;" horiz-adv-x="526" 
d="M489 415v-162h-450v162h450zM259 469c-53 0 -98 43 -98 96s45 96 98 96s97 -43 97 -96s-44 -96 -97 -96zM259 8c-53 0 -98 44 -98 96c0 53 45 97 98 97s97 -44 97 -97c0 -52 -44 -96 -97 -96z" />
    <glyph glyph-name="approxequal" unicode="&#x2248;" horiz-adv-x="626" 
d="M421 294c47 0 86 20 115 46l54 -144c-30 -28 -81 -60 -147 -60c-75 0 -137 56 -223 56c-50 0 -98 -24 -129 -44l-52 137c20 15 88 65 160 65c85 0 148 -56 222 -56zM421 576c47 0 86 21 115 47l54 -145c-30 -28 -81 -60 -147 -60c-75 0 -137 56 -223 56
c-50 0 -98 -23 -129 -44l-52 138c20 15 88 64 160 64c85 0 148 -56 222 -56z" />
    <glyph glyph-name="partialdiff" unicode="&#x2202;" horiz-adv-x="662" 
d="M267 458c75 0 127 -18 160 -45c-5 85 -72 136 -156 136c-56 0 -118 -29 -119 -30l-83 150c57 30 142 46 254 46c158 0 299 -109 299 -406c0 -186 -129 -320 -290 -320c-158 0 -288 86 -288 241c0 170 134 228 223 228zM333 324c-50 0 -91 -41 -91 -91s41 -91 90 -91
c52 0 92 40 92 91c0 50 -39 91 -91 91z" />
    <glyph glyph-name="summation" unicode="&#x2211;" horiz-adv-x="703" 
d="M57 705h595v-167h-302l199 -266l-199 -266h302v-167h-595v88l258 345l-258 345v88z" />
    <glyph glyph-name="product" unicode="&#x220f;" horiz-adv-x="764" 
d="M75 -161v866h631v-866h-199v699h-233v-699h-199z" />
    <glyph glyph-name="integral" unicode="&#x222b;" horiz-adv-x="603" 
d="M571 741l-23 -139c-21 1 -37 2 -52 2c-72 0 -76 -23 -91 -118l-79 -503c-19 -117 -109 -175 -207 -175c-46 0 -77 6 -100 12l24 150h9c73 0 77 24 92 118l80 502c19 121 110 175 206 175c98 0 141 -25 141 -24z" />
    <glyph glyph-name="radical" unicode="&#x221a;" horiz-adv-x="856" 
d="M517 306l282 609h184l-432 -915h-92l-259 557h-164v154h314z" />
    <glyph glyph-name="lozenge" unicode="&#x25ca;" horiz-adv-x="512" 
d="M221 754h68l187 -377l-187 -377h-68l-186 377zM214 377l42 -88l40 88l-40 88z" />
    <glyph glyph-name="Agrave" unicode="&#xc0;" horiz-adv-x="800" 
d="M581 0l-50 113h-263l-49 -113h-214l347 705h96l348 -705h-215zM400 414l-60 -139h120zM340 746l-197 170l212 17l101 -187h-116z" />
    <glyph glyph-name="Adieresis" unicode="&#xc4;" horiz-adv-x="800" 
d="M581 0l-50 113h-263l-49 -113h-214l347 705h96l348 -705h-215zM400 414l-60 -139h120zM511 906c48 0 88 -39 88 -86c0 -48 -40 -87 -88 -87c-49 0 -89 39 -89 87c0 47 40 86 89 86zM291 906c48 0 88 -39 88 -86c0 -48 -40 -87 -88 -87c-49 0 -89 39 -89 87
c0 47 40 86 89 86z" />
    <glyph glyph-name="Egrave" unicode="&#xc8;" horiz-adv-x="669" 
d="M259 167h374v-167h-573v705h552v-167h-353v-115h291v-162h-291v-94zM278 746l-197 170l212 17l101 -187h-116z" />
    <glyph glyph-name="Edieresis" unicode="&#xcb;" horiz-adv-x="669" 
d="M259 167h374v-167h-573v705h552v-167h-353v-115h291v-162h-291v-94zM445 906c48 0 88 -39 88 -86c0 -48 -40 -87 -88 -87c-49 0 -89 39 -89 87c0 47 40 86 89 86zM225 906c48 0 88 -39 88 -86c0 -48 -40 -87 -88 -87c-49 0 -89 39 -89 87c0 47 40 86 89 86z" />
    <glyph glyph-name="Aring" unicode="&#xc5;" horiz-adv-x="800" 
d="M275 770c0 66 59 124 125 124s125 -56 125 -124c0 -43 -24 -81 -58 -104l329 -666h-215l-50 113h-263l-49 -113h-214l328 666c-35 23 -58 62 -58 104zM400 713c32 0 57 25 57 59c0 32 -26 57 -57 57c-32 0 -57 -26 -57 -59c0 -32 24 -57 57 -57zM400 414l-60 -139h120z
" />
    <glyph glyph-name="Ccedilla" unicode="&#xc7;" horiz-adv-x="728" 
d="M298 -79l69 72c-186 20 -330 173 -330 359c0 200 168 363 375 363c118 0 223 -53 292 -136l-157 -128c-30 49 -79 80 -135 80c-89 0 -164 -64 -164 -179c0 -112 75 -179 164 -179c56 0 105 31 135 80l157 -128c-54 -65 -129 -110 -215 -127l-19 -50s19 -17 19 -46
c0 -89 -130 -92 -200 -92h-16l-13 62h19c32 0 85 1 85 27c0 14 -29 22 -66 22z" />
    <glyph glyph-name="Eacute" unicode="&#xc9;" horiz-adv-x="669" 
d="M259 167h374v-167h-573v705h552v-167h-353v-115h291v-162h-291v-94zM590 916l-197 -170h-116l101 187z" />
    <glyph glyph-name="Ntilde" unicode="&#xd1;" horiz-adv-x="786" 
d="M521 705h205v-705h-96l-365 349v-349h-205v705h96l365 -349v349zM260 729l-86 10c0 112 56 177 125 177c61 0 124 -38 156 -38c28 0 47 25 60 54l85 -10c0 -105 -56 -177 -126 -177c-60 0 -125 38 -156 38c-27 0 -45 -23 -58 -54z" />
    <glyph glyph-name="Odieresis" unicode="&#xd6;" horiz-adv-x="829" 
d="M413 714c209 0 377 -162 377 -362s-168 -362 -377 -362c-208 0 -377 162 -377 362s169 362 377 362zM413 172c94 0 169 80 169 180c0 99 -75 180 -169 180c-92 0 -168 -81 -168 -180c0 -100 76 -180 168 -180zM524 906c48 0 88 -39 88 -86c0 -48 -40 -87 -88 -87
c-49 0 -89 39 -89 87c0 47 40 86 89 86zM304 906c48 0 88 -39 88 -86c0 -48 -40 -87 -88 -87c-49 0 -89 39 -89 87c0 47 40 86 89 86z" />
    <glyph glyph-name="Udieresis" unicode="&#xdc;" horiz-adv-x="758" 
d="M709 705v-422c0 -163 -113 -293 -330 -293c-216 0 -328 129 -328 293v422h199v-369c0 -127 44 -168 129 -168c87 0 131 41 131 168v369h199zM490 906c48 0 88 -39 88 -86c0 -48 -40 -87 -88 -87c-49 0 -89 39 -89 87c0 47 40 86 89 86zM270 906c48 0 88 -39 88 -86
c0 -48 -40 -87 -88 -87c-49 0 -89 39 -89 87c0 47 40 86 89 86z" />
    <glyph glyph-name="aacute" unicode="&#xe1;" horiz-adv-x="672" 
d="M425 545h199v-545h-199v27c-41 -23 -84 -37 -127 -37c-178 0 -264 143 -264 283c0 142 86 283 264 283c41 0 84 -12 127 -32v21zM425 191v163c-25 20 -57 32 -90 32c-76 0 -111 -57 -111 -113s36 -114 111 -114c33 0 65 12 90 32zM591 775l-197 -170h-116l101 187z" />
    <glyph glyph-name="agrave" unicode="&#xe0;" horiz-adv-x="672" 
d="M425 545h199v-545h-199v27c-41 -23 -84 -37 -127 -37c-178 0 -264 143 -264 283c0 142 86 283 264 283c41 0 84 -12 127 -32v21zM425 191v163c-25 20 -57 32 -90 32c-76 0 -111 -57 -111 -113s36 -114 111 -114c33 0 65 12 90 32zM279 605l-197 170l212 17l101 -187h-116
z" />
    <glyph glyph-name="acircumflex" unicode="&#xe2;" horiz-adv-x="672" 
d="M425 545h199v-545h-199v27c-41 -23 -84 -37 -127 -37c-178 0 -264 143 -264 283c0 142 86 283 264 283c41 0 84 -12 127 -32v21zM425 191v163c-25 20 -57 32 -90 32c-76 0 -111 -57 -111 -113s36 -114 111 -114c33 0 65 12 90 32zM127 605l148 167h120l148 -167h-127
l-82 80l-82 -80h-125z" />
    <glyph glyph-name="adieresis" unicode="&#xe4;" horiz-adv-x="672" 
d="M425 545h199v-545h-199v27c-41 -23 -84 -37 -127 -37c-178 0 -264 143 -264 283c0 142 86 283 264 283c41 0 84 -12 127 -32v21zM425 191v163c-25 20 -57 32 -90 32c-76 0 -111 -57 -111 -113s36 -114 111 -114c33 0 65 12 90 32zM445 765c48 0 88 -39 88 -86
c0 -48 -40 -87 -88 -87c-49 0 -89 39 -89 87c0 47 40 86 89 86zM225 765c48 0 88 -39 88 -86c0 -48 -40 -87 -88 -87c-49 0 -89 39 -89 87c0 47 40 86 89 86z" />
    <glyph glyph-name="atilde" unicode="&#xe3;" horiz-adv-x="672" 
d="M425 545h199v-545h-199v27c-41 -23 -84 -37 -127 -37c-178 0 -264 143 -264 283c0 142 86 283 264 283c41 0 84 -12 127 -32v21zM425 191v163c-25 20 -57 32 -90 32c-76 0 -111 -57 -111 -113s36 -114 111 -114c33 0 65 12 90 32zM208 588l-86 10c0 112 56 177 125 177
c61 0 124 -38 156 -38c28 0 47 25 60 54l85 -10c0 -105 -56 -177 -126 -177c-60 0 -125 38 -156 38c-27 0 -45 -23 -58 -54z" />
    <glyph glyph-name="aring" unicode="&#xe5;" horiz-adv-x="672" 
d="M425 545h199v-545h-199v27c-41 -23 -84 -37 -127 -37c-178 0 -264 143 -264 283c0 142 86 283 264 283c41 0 84 -12 127 -32v21zM425 191v163c-25 20 -57 32 -90 32c-76 0 -111 -57 -111 -113s36 -114 111 -114c33 0 65 12 90 32zM212 721c0 66 59 124 125 124
s125 -56 125 -124s-59 -124 -125 -124s-125 58 -125 124zM337 664c32 0 57 25 57 59c0 32 -26 57 -57 57c-32 0 -57 -26 -57 -59c0 -32 24 -57 57 -57z" />
    <glyph glyph-name="ccedilla" unicode="&#xe7;" horiz-adv-x="568" 
d="M213 -79l70 72c-144 20 -255 137 -255 279c0 157 134 283 299 283c92 0 171 -45 220 -116l-126 -113c-18 36 -54 60 -94 60c-58 0 -105 -51 -105 -114c0 -62 47 -113 105 -113c40 0 76 24 94 60l124 -112c-35 -51 -85 -89 -143 -106h4l-21 -53s19 -17 19 -46
c0 -89 -130 -92 -200 -92h-16l-13 62h19c32 0 85 1 85 27c0 14 -29 22 -66 22z" />
    <glyph glyph-name="egrave" unicode="&#xe8;" horiz-adv-x="603" 
d="M574 219h-348c16 -47 53 -83 115 -83c41 0 71 26 98 67l120 -97c-50 -71 -140 -116 -250 -116c-165 0 -280 126 -280 282c0 157 115 283 280 283c163 0 266 -118 266 -283c0 -18 -1 -53 -1 -53zM226 329h162c0 31 -28 77 -79 77c-39 0 -75 -35 -83 -77zM254 605l-197 170
l212 17l101 -187h-116z" />
    <glyph glyph-name="ecircumflex" unicode="&#xea;" horiz-adv-x="603" 
d="M574 219h-348c16 -47 53 -83 115 -83c41 0 71 26 98 67l120 -97c-50 -71 -140 -116 -250 -116c-165 0 -280 126 -280 282c0 157 115 283 280 283c163 0 266 -118 266 -283c0 -18 -1 -53 -1 -53zM226 329h162c0 31 -28 77 -79 77c-39 0 -75 -35 -83 -77zM102 605l148 167
h120l148 -167h-127l-82 80l-82 -80h-125z" />
    <glyph glyph-name="edieresis" unicode="&#xeb;" horiz-adv-x="603" 
d="M574 219h-348c16 -47 53 -83 115 -83c41 0 71 26 98 67l120 -97c-50 -71 -140 -116 -250 -116c-165 0 -280 126 -280 282c0 157 115 283 280 283c163 0 266 -118 266 -283c0 -18 -1 -53 -1 -53zM226 329h162c0 31 -28 77 -79 77c-39 0 -75 -35 -83 -77zM420 765
c48 0 88 -39 88 -86c0 -48 -40 -87 -88 -87c-49 0 -89 39 -89 87c0 47 40 86 89 86zM200 765c48 0 88 -39 88 -86c0 -48 -40 -87 -88 -87c-49 0 -89 39 -89 87c0 47 40 86 89 86z" />
    <glyph glyph-name="eacute" unicode="&#xe9;" horiz-adv-x="603" 
d="M574 219h-348c16 -47 53 -83 115 -83c41 0 71 26 98 67l120 -97c-50 -71 -140 -116 -250 -116c-165 0 -280 126 -280 282c0 157 115 283 280 283c163 0 266 -118 266 -283c0 -18 -1 -53 -1 -53zM226 329h162c0 31 -28 77 -79 77c-39 0 -75 -35 -83 -77zM565 775
l-197 -170h-116l101 187z" />
    <glyph glyph-name="igrave" unicode="&#xec;" 
d="M98 595l-197 170l212 17l101 -187h-116zM53 0v545h199v-545h-199z" />
    <glyph glyph-name="icircumflex" unicode="&#xee;" 
d="M53 0v545h199v-545h-199zM-53 595l148 167h120l148 -167h-127l-82 80l-82 -80h-125z" />
    <glyph glyph-name="idieresis" unicode="&#xef;" 
d="M265 755c48 0 88 -39 88 -86c0 -48 -40 -87 -88 -87c-49 0 -89 39 -89 87c0 47 40 86 89 86zM45 755c48 0 88 -39 88 -86c0 -48 -40 -87 -88 -87c-49 0 -89 39 -89 87c0 47 40 86 89 86zM53 0v545h199v-545h-199z" />
    <glyph glyph-name="iacute" unicode="&#xed;" 
d="M410 765l-197 -170h-116l101 187zM53 0v545h199v-545h-199z" />
    <glyph glyph-name="ntilde" unicode="&#xf1;" horiz-adv-x="634" 
d="M354 555c176 0 233 -71 233 -257v-298h-199v298c0 61 -14 88 -71 88c-27 0 -52 -10 -69 -27v-359h-199v545h199v-19c35 19 70 29 106 29zM186 578l-86 10c0 112 56 177 125 177c61 0 124 -38 156 -38c28 0 47 25 60 54l85 -10c0 -105 -56 -177 -126 -177
c-60 0 -125 38 -156 38c-27 0 -45 -23 -58 -54z" />
    <glyph glyph-name="ograve" unicode="&#xf2;" horiz-adv-x="654" 
d="M326 555c165 0 299 -126 299 -283c0 -156 -134 -282 -299 -282s-299 126 -299 282c0 157 134 283 299 283zM326 159c58 0 105 51 105 113c0 63 -47 114 -105 114s-105 -51 -105 -114c0 -62 47 -113 105 -113zM271 595l-197 170l212 17l101 -187h-116z" />
    <glyph glyph-name="ocircumflex" unicode="&#xf4;" horiz-adv-x="654" 
d="M326 555c165 0 299 -126 299 -283c0 -156 -134 -282 -299 -282s-299 126 -299 282c0 157 134 283 299 283zM326 159c58 0 105 51 105 113c0 63 -47 114 -105 114s-105 -51 -105 -114c0 -62 47 -113 105 -113zM119 595l148 167h120l148 -167h-127l-82 80l-82 -80h-125z
" />
    <glyph glyph-name="otilde" unicode="&#xf5;" horiz-adv-x="654" 
d="M326 555c165 0 299 -126 299 -283c0 -156 -134 -282 -299 -282s-299 126 -299 282c0 157 134 283 299 283zM326 159c58 0 105 51 105 113c0 63 -47 114 -105 114s-105 -51 -105 -114c0 -62 47 -113 105 -113zM200 578l-86 10c0 112 56 177 125 177c61 0 124 -38 156 -38
c28 0 47 25 60 54l85 -10c0 -105 -56 -177 -126 -177c-60 0 -125 38 -156 38c-27 0 -45 -23 -58 -54z" />
    <glyph glyph-name="odieresis" unicode="&#xf6;" horiz-adv-x="654" 
d="M326 555c165 0 299 -126 299 -283c0 -156 -134 -282 -299 -282s-299 126 -299 282c0 157 134 283 299 283zM326 159c58 0 105 51 105 113c0 63 -47 114 -105 114s-105 -51 -105 -114c0 -62 47 -113 105 -113zM437 755c48 0 88 -39 88 -86c0 -48 -40 -87 -88 -87
c-49 0 -89 39 -89 87c0 47 40 86 89 86zM217 755c48 0 88 -39 88 -86c0 -48 -40 -87 -88 -87c-49 0 -89 39 -89 87c0 47 40 86 89 86z" />
    <glyph glyph-name="oacute" unicode="&#xf3;" horiz-adv-x="654" 
d="M326 555c165 0 299 -126 299 -283c0 -156 -134 -282 -299 -282s-299 126 -299 282c0 157 134 283 299 283zM326 159c58 0 105 51 105 113c0 63 -47 114 -105 114s-105 -51 -105 -114c0 -62 47 -113 105 -113zM582 765l-197 -170h-116l101 187z" />
    <glyph glyph-name="ugrave" unicode="&#xf9;" horiz-adv-x="633" 
d="M385 545h199v-545h-199v19c-35 -19 -70 -29 -106 -29c-175 0 -233 71 -233 257v298h199v-298c0 -61 15 -88 71 -88c28 0 52 10 69 27v359zM260 595l-197 170l212 17l101 -187h-116z" />
    <glyph glyph-name="ucircumflex" unicode="&#xfb;" horiz-adv-x="633" 
d="M385 545h199v-545h-199v19c-35 -19 -70 -29 -106 -29c-175 0 -233 71 -233 257v298h199v-298c0 -61 15 -88 71 -88c28 0 52 10 69 27v359zM109 595l148 167h120l148 -167h-127l-82 80l-82 -80h-125z" />
    <glyph glyph-name="udieresis" unicode="&#xfc;" horiz-adv-x="633" 
d="M385 545h199v-545h-199v19c-35 -19 -70 -29 -106 -29c-175 0 -233 71 -233 257v298h199v-298c0 -61 15 -88 71 -88c28 0 52 10 69 27v359zM427 755c48 0 88 -39 88 -86c0 -48 -40 -87 -88 -87c-49 0 -89 39 -89 87c0 47 40 86 89 86zM207 755c48 0 88 -39 88 -86
c0 -48 -40 -87 -88 -87c-49 0 -89 39 -89 87c0 47 40 86 89 86z" />
    <glyph glyph-name="uacute" unicode="&#xfa;" horiz-adv-x="633" 
d="M385 545h199v-545h-199v19c-35 -19 -70 -29 -106 -29c-175 0 -233 71 -233 257v298h199v-298c0 -61 15 -88 71 -88c28 0 52 10 69 27v359zM571 765l-197 -170h-116l101 187z" />
    <glyph glyph-name="Atilde" unicode="&#xc3;" horiz-adv-x="800" 
d="M581 0l-50 113h-263l-49 -113h-214l347 705h96l348 -705h-215zM400 414l-60 -139h120zM274 729l-86 10c0 112 56 177 125 177c61 0 124 -38 156 -38c28 0 47 25 60 54l85 -10c0 -105 -56 -177 -126 -177c-60 0 -125 38 -156 38c-27 0 -45 -23 -58 -54z" />
    <glyph glyph-name="Otilde" unicode="&#xd5;" horiz-adv-x="829" 
d="M413 714c209 0 377 -162 377 -362s-168 -362 -377 -362c-208 0 -377 162 -377 362s169 362 377 362zM413 172c94 0 169 80 169 180c0 99 -75 180 -169 180c-92 0 -168 -81 -168 -180c0 -100 76 -180 168 -180zM287 729l-86 10c0 112 56 177 125 177c61 0 124 -38 156 -38
c28 0 47 25 60 54l85 -10c0 -105 -56 -177 -126 -177c-60 0 -125 38 -156 38c-27 0 -45 -23 -58 -54z" />
    <glyph glyph-name="Acircumflex" unicode="&#xc2;" horiz-adv-x="800" 
d="M581 0l-50 113h-263l-49 -113h-214l347 705h96l348 -705h-215zM400 414l-60 -139h120zM193 746l148 167h120l148 -167h-127l-82 80l-82 -80h-125z" />
    <glyph glyph-name="Ecircumflex" unicode="&#xca;" horiz-adv-x="669" 
d="M259 167h374v-167h-573v705h552v-167h-353v-115h291v-162h-291v-94zM127 746l148 167h120l148 -167h-127l-82 80l-82 -80h-125z" />
    <glyph glyph-name="Aacute" unicode="&#xc1;" horiz-adv-x="800" 
d="M581 0l-50 113h-263l-49 -113h-214l347 705h96l348 -705h-215zM400 414l-60 -139h120zM656 916l-197 -170h-116l101 187z" />
    <glyph glyph-name="Igrave" unicode="&#xcc;" horiz-adv-x="333" 
d="M269 705v-705h-205v705h205zM113 759l-197 170l212 17l101 -187h-116z" />
    <glyph glyph-name="Icircumflex" unicode="&#xce;" horiz-adv-x="333" 
d="M269 705v-705h-205v705h205zM-39 759l148 167h120l148 -167h-127l-82 80l-82 -80h-125z" />
    <glyph glyph-name="Idieresis" unicode="&#xcf;" horiz-adv-x="333" 
d="M269 705v-705h-205v705h205zM279 919c48 0 88 -39 88 -86c0 -48 -40 -87 -88 -87c-49 0 -89 39 -89 87c0 47 40 86 89 86zM59 919c48 0 88 -39 88 -86c0 -48 -40 -87 -88 -87c-49 0 -89 39 -89 87c0 47 40 86 89 86z" />
    <glyph glyph-name="Iacute" unicode="&#xcd;" horiz-adv-x="333" 
d="M269 705v-705h-205v705h205zM424 929l-197 -170h-116l101 187z" />
    <glyph glyph-name="Ograve" unicode="&#xd2;" horiz-adv-x="829" 
d="M413 714c209 0 377 -162 377 -362s-168 -362 -377 -362c-208 0 -377 162 -377 362s169 362 377 362zM413 172c94 0 169 80 169 180c0 99 -75 180 -169 180c-92 0 -168 -81 -168 -180c0 -100 76 -180 168 -180zM358 746l-197 170l212 17l101 -187h-116z" />
    <glyph glyph-name="Ocircumflex" unicode="&#xd4;" horiz-adv-x="829" 
d="M413 714c209 0 377 -162 377 -362s-168 -362 -377 -362c-208 0 -377 162 -377 362s169 362 377 362zM413 172c94 0 169 80 169 180c0 99 -75 180 -169 180c-92 0 -168 -81 -168 -180c0 -100 76 -180 168 -180zM207 746l148 167h120l148 -167h-127l-82 80l-82 -80h-125z
" />
    <glyph glyph-name="Oacute" unicode="&#xd3;" horiz-adv-x="829" 
d="M413 714c209 0 377 -162 377 -362s-168 -362 -377 -362c-208 0 -377 162 -377 362s169 362 377 362zM413 172c94 0 169 80 169 180c0 99 -75 180 -169 180c-92 0 -168 -81 -168 -180c0 -100 76 -180 168 -180zM670 916l-197 -170h-116l101 187z" />
    <glyph glyph-name="Ugrave" unicode="&#xd9;" horiz-adv-x="758" 
d="M709 705v-422c0 -163 -113 -293 -330 -293c-216 0 -328 129 -328 293v422h199v-369c0 -127 44 -168 129 -168c87 0 131 41 131 168v369h199zM323 746l-197 170l212 17l101 -187h-116z" />
    <glyph glyph-name="Ucircumflex" unicode="&#xdb;" horiz-adv-x="758" 
d="M709 705v-422c0 -163 -113 -293 -330 -293c-216 0 -328 129 -328 293v422h199v-369c0 -127 44 -168 129 -168c87 0 131 41 131 168v369h199zM172 746l148 167h120l148 -167h-127l-82 80l-82 -80h-125z" />
    <glyph glyph-name="Uacute" unicode="&#xda;" horiz-adv-x="758" 
d="M709 705v-422c0 -163 -113 -293 -330 -293c-216 0 -328 129 -328 293v422h199v-369c0 -127 44 -168 129 -168c87 0 131 41 131 168v369h199zM635 916l-197 -170h-116l101 187z" />
    <glyph glyph-name="Yacute" unicode="&#xdd;" horiz-adv-x="728" 
d="M499 705h233l-266 -468v-237h-205v237l-265 468h233l135 -256zM620 916l-197 -170h-116l101 187z" />
    <glyph glyph-name="Ydieresis" unicode="&#x178;" horiz-adv-x="728" 
d="M499 705h233l-266 -468v-237h-205v237l-265 468h233l135 -256zM475 906c48 0 88 -39 88 -86c0 -48 -40 -87 -88 -87c-49 0 -89 39 -89 87c0 47 40 86 89 86zM255 906c48 0 88 -39 88 -86c0 -48 -40 -87 -88 -87c-49 0 -89 39 -89 87c0 47 40 86 89 86z" />
    <glyph glyph-name="ydieresis" unicode="&#xff;" horiz-adv-x="627" 
d="M415 545h203l-222 -574c-42 -110 -162 -163 -271 -163c-38 0 -68 2 -93 4l27 140h17c50 0 98 7 124 48l-191 545h208l91 -306h2zM423 755c48 0 88 -39 88 -86c0 -48 -40 -87 -88 -87c-49 0 -89 39 -89 87c0 47 40 86 89 86zM203 755c48 0 88 -39 88 -86
c0 -48 -40 -87 -88 -87c-49 0 -89 39 -89 87c0 47 40 86 89 86z" />
    <glyph glyph-name="yacute" unicode="&#xfd;" horiz-adv-x="627" 
d="M415 545h203l-222 -574c-42 -110 -162 -163 -271 -163c-38 0 -68 2 -93 4l27 140h17c50 0 98 7 124 48l-191 545h208l91 -306h2zM568 765l-197 -170h-116l101 187z" />
    <glyph glyph-name="Alphatonos" unicode="&#x386;" horiz-adv-x="800" 
d="M581 0l-50 113h-263l-49 -113h-214l347 705h96l348 -705h-215zM400 414l-60 -139h120zM280 706l-196 -170h-116l100 187z" />
    <glyph glyph-name="Epsilontonos" unicode="&#x388;" horiz-adv-x="669" 
d="M28 706l-196 -170h-116l100 187zM259 167h374v-167h-573v705h552v-167h-353v-115h291v-162h-291v-94z" />
    <glyph glyph-name="Etatonos" unicode="&#x389;" horiz-adv-x="763" 
d="M505 705h198v-705h-198v211h-246v-211h-199v705h199v-327h246v327zM28 706l-196 -170h-116l100 187z" />
    <glyph glyph-name="Iotatonos" unicode="&#x38a;" horiz-adv-x="333" 
d="M269 705v-705h-205v705h205zM28 706l-196 -170h-116l100 187z" />
    <glyph glyph-name="Omicrontonos" unicode="&#x38c;" horiz-adv-x="829" 
d="M120 706l-196 -170h-116l100 187zM413 714c209 0 377 -162 377 -362s-168 -362 -377 -362c-208 0 -377 162 -377 362s169 362 377 362zM413 172c94 0 169 80 169 180c0 99 -75 180 -169 180c-92 0 -168 -81 -168 -180c0 -100 76 -180 168 -180z" />
    <glyph glyph-name="Upsilontonos" unicode="&#x38e;" horiz-adv-x="728" 
d="M-12 706l-196 -170h-116l100 187zM499 705h233l-266 -468v-237h-205v237l-265 468h233l135 -256z" />
    <glyph glyph-name="Omegatonos" unicode="&#x38f;" horiz-adv-x="828" 
d="M792 380c0 -100 -49 -180 -110 -213h101v-167h-316v182c70 24 115 95 115 198c0 105 -76 167 -168 167c-94 0 -170 -62 -170 -167c0 -103 45 -174 116 -198v-182h-316v167h100c-60 33 -108 113 -108 213c0 236 168 335 378 335c208 0 378 -99 378 -335zM116 706
l-196 -170h-116l100 187z" />
    <glyph glyph-name="iotadieresistonos" unicode="&#x390;" 
d="M53 0v545h199v-545h-199zM-37 740c48 0 88 -39 88 -86c0 -48 -40 -87 -88 -87c-49 0 -88 39 -88 87c0 47 39 86 88 86zM357 740c48 0 87 -39 87 -86c0 -48 -39 -87 -87 -87c-49 0 -89 39 -89 87c0 47 40 86 89 86zM79 582l46 214l148 -34l-95 -180h-99z" />
    <glyph glyph-name="iotatonos" unicode="&#x3af;" 
d="M53 0v545h199v-545h-199zM388 758l-196 -170h-116l100 187z" />
    <glyph glyph-name="Iotadieresis" unicode="&#x3aa;" horiz-adv-x="333" 
d="M269 705v-705h-205v705h205zM279 919c48 0 88 -39 88 -86c0 -48 -40 -87 -88 -87c-49 0 -89 39 -89 87c0 47 40 86 89 86zM59 919c48 0 88 -39 88 -86c0 -48 -40 -87 -88 -87c-49 0 -89 39 -89 87c0 47 40 86 89 86z" />
    <glyph glyph-name="Upsilondieresis" unicode="&#x3ab;" horiz-adv-x="728" 
d="M499 705h233l-266 -468v-237h-205v237l-265 468h233l135 -256zM474 919c48 0 88 -39 88 -86c0 -48 -40 -87 -88 -87c-49 0 -89 39 -89 87c0 47 40 86 89 86zM254 919c48 0 88 -39 88 -86c0 -48 -40 -87 -88 -87c-49 0 -89 39 -89 87c0 47 40 86 89 86z" />
    <glyph glyph-name="alphatonos" unicode="&#x3ac;" horiz-adv-x="680" 
d="M432 545h199v-545h-199v27c-40 -23 -83 -37 -127 -37c-149 0 -271 109 -271 283c0 177 122 283 271 283c42 0 85 -12 127 -32v21zM432 191v163c-24 20 -57 32 -90 32c-68 0 -112 -47 -112 -113c0 -73 44 -114 112 -114c33 0 66 12 90 32zM536 758l-196 -170h-116l100 187
z" />
    <glyph glyph-name="epsilontonos" unicode="&#x3ad;" horiz-adv-x="577" 
d="M526 758l-196 -170h-116l100 187zM484 184l77 -123c-89 -43 -162 -71 -272 -71c-152 0 -259 41 -259 161c0 71 38 108 102 128c-51 24 -82 61 -82 116c0 125 103 160 249 160c94 0 177 -30 252 -64l-76 -116c-61 23 -110 34 -149 34c-51 0 -86 -12 -86 -39
c0 -16 3 -43 86 -43h84v-102h-109c-64 0 -78 -27 -78 -50c0 -17 18 -37 72 -37c77 0 114 15 189 46z" />
    <glyph glyph-name="etatonos" unicode="&#x3ae;" horiz-adv-x="634" 
d="M354 555c176 0 233 -71 233 -257v-298h-199v298c0 61 -14 88 -71 88c-27 0 -52 -10 -69 -27v-359h-199v545h199v-19c35 19 70 29 106 29zM536 758l-196 -170h-116l100 187z" />
    <glyph glyph-name="iotadieresis" unicode="&#x3ca;" 
d="M53 0v545h199v-545h-199zM264 755c48 0 88 -39 88 -86c0 -48 -40 -87 -88 -87c-49 0 -89 39 -89 87c0 47 40 86 89 86zM44 755c48 0 88 -39 88 -86c0 -48 -40 -87 -88 -87c-49 0 -89 39 -89 87c0 47 40 86 89 86z" />
    <glyph glyph-name="omicrontonos" unicode="&#x3cc;" horiz-adv-x="654" 
d="M564 758l-196 -170h-116l100 187zM326 555c165 0 299 -126 299 -283c0 -156 -134 -282 -299 -282s-300 126 -300 282c0 157 135 283 300 283zM326 159c58 0 105 51 105 113c0 63 -47 114 -105 114s-105 -51 -105 -114c0 -62 47 -113 105 -113z" />
    <glyph glyph-name="upsilontonos" unicode="&#x3cd;" horiz-adv-x="620" 
d="M541 758l-196 -170h-116l100 187zM576 545v-326c0 -145 -129 -229 -266 -229c-129 0 -266 78 -266 229v326h199v-301c0 -48 1 -91 67 -91c65 0 66 43 66 93v299h200z" />
    <glyph glyph-name="omegatonos" unicode="&#x3ce;" horiz-adv-x="862" 
d="M559 382v173c151 0 274 -104 274 -283c0 -173 -90 -282 -240 -282c-96 0 -141 45 -163 101c-23 -56 -68 -101 -163 -101c-151 0 -241 109 -241 282c0 179 123 283 274 283v-173c-48 -14 -78 -56 -78 -110c0 -71 16 -113 58 -113c56 0 57 61 57 109v77h185v-77
c0 -48 0 -109 57 -109c42 0 59 42 59 113c0 54 -31 96 -79 110zM661 758l-196 -170h-116l100 187z" />
    <glyph glyph-name="upsilondieresis" unicode="&#x3cb;" horiz-adv-x="620" 
d="M576 545v-326c0 -145 -129 -229 -266 -229c-129 0 -266 78 -266 229v326h199v-301c0 -48 1 -91 67 -91c65 0 66 43 66 93v299h200zM422 755c48 0 88 -39 88 -86c0 -48 -40 -87 -88 -87c-49 0 -89 39 -89 87c0 47 40 86 89 86zM202 755c48 0 88 -39 88 -86
c0 -48 -40 -87 -88 -87c-49 0 -89 39 -89 87c0 47 40 86 89 86z" />
    <glyph glyph-name="upsilondieresistonos" unicode="&#x3b0;" horiz-adv-x="620" 
d="M576 545v-326c0 -145 -129 -229 -266 -229c-129 0 -266 78 -266 229v326h199v-301c0 -48 1 -91 67 -91c65 0 66 43 66 93v299h200zM121 747c48 0 88 -39 88 -86c0 -48 -40 -87 -88 -87c-49 0 -88 39 -88 87c0 47 39 86 88 86zM515 747c48 0 87 -39 87 -86
c0 -48 -39 -87 -87 -87c-49 0 -89 39 -89 87c0 47 40 86 89 86zM237 589l46 214l148 -34l-95 -180h-99z" />
    <glyph glyph-name="Amacron" unicode="&#x100;" horiz-adv-x="800" 
d="M581 0l-50 113h-263l-49 -113h-214l347 705h96l348 -705h-215zM400 414l-60 -139h120zM241 752v120h316v-120h-316z" />
    <glyph glyph-name="Abreve" unicode="&#x102;" horiz-adv-x="800" 
d="M581 0l-50 113h-263l-49 -113h-214l347 705h96l348 -705h-215zM400 414l-60 -139h120zM400 744c-114 0 -192 51 -201 159l116 10c13 -33 35 -56 85 -56s72 23 84 56l117 -10c-10 -108 -87 -159 -201 -159z" />
    <glyph glyph-name="Aogonek" unicode="&#x104;" horiz-adv-x="800" 
d="M581 0l-50 113h-263l-49 -113h-214l347 705h96l348 -705h-1c-13 -16 -20 -35 -20 -46c0 -35 30 -42 51 -42v-84c-19 -2 -39 -3 -56 -3c-85 0 -130 31 -130 102c0 20 10 54 28 73h-87zM400 414l-60 -139h120z" />
    <glyph glyph-name="amacron" unicode="&#x101;" horiz-adv-x="672" 
d="M425 545h199v-545h-199v27c-41 -23 -84 -37 -127 -37c-178 0 -264 143 -264 283c0 142 86 283 264 283c41 0 84 -12 127 -32v21zM425 191v163c-25 20 -57 32 -90 32c-76 0 -111 -57 -111 -113s36 -114 111 -114c33 0 65 12 90 32zM176 611v120h316v-120h-316z" />
    <glyph glyph-name="abreve" unicode="&#x103;" horiz-adv-x="672" 
d="M425 545h199v-545h-199v27c-41 -23 -84 -37 -127 -37c-178 0 -264 143 -264 283c0 142 86 283 264 283c41 0 84 -12 127 -32v21zM425 191v163c-25 20 -57 32 -90 32c-76 0 -111 -57 -111 -113s36 -114 111 -114c33 0 65 12 90 32zM335 603c-114 0 -192 51 -201 159
l116 10c13 -33 35 -56 85 -56s72 23 84 56l117 -10c-10 -108 -87 -159 -201 -159z" />
    <glyph glyph-name="aogonek" unicode="&#x105;" horiz-adv-x="672" 
d="M655 -88v-84c-19 -2 -39 -3 -56 -3c-85 0 -130 31 -130 102c0 20 10 54 28 73h-72v27c-41 -23 -84 -37 -127 -37c-178 0 -264 143 -264 283c0 142 86 283 264 283c41 0 84 -12 127 -32v21h199v-545c-13 -16 -20 -35 -20 -46c0 -35 30 -42 51 -42zM425 191v163
c-25 20 -57 32 -90 32c-76 0 -111 -57 -111 -113s36 -114 111 -114c33 0 65 12 90 32z" />
    <glyph glyph-name="Ccircumflex" unicode="&#x108;" horiz-adv-x="728" 
d="M412 173c56 0 105 31 135 80l157 -128c-69 -83 -174 -135 -292 -135c-207 0 -375 162 -375 362s168 363 375 363c118 0 223 -53 292 -136l-157 -128c-30 49 -79 80 -135 80c-89 0 -164 -64 -164 -179c0 -112 75 -179 164 -179zM206 746l148 167h120l148 -167h-127l-82 80
l-82 -80h-125z" />
    <glyph glyph-name="Cacute" unicode="&#x106;" horiz-adv-x="728" 
d="M412 173c56 0 105 31 135 80l157 -128c-69 -83 -174 -135 -292 -135c-207 0 -375 162 -375 362s168 363 375 363c118 0 223 -53 292 -136l-157 -128c-30 49 -79 80 -135 80c-89 0 -164 -64 -164 -179c0 -112 75 -179 164 -179zM669 916l-197 -170h-116l101 187z" />
    <glyph glyph-name="Cdotaccent" unicode="&#x10a;" horiz-adv-x="728" 
d="M412 173c56 0 105 31 135 80l157 -128c-69 -83 -174 -135 -292 -135c-207 0 -375 162 -375 362s168 363 375 363c118 0 223 -53 292 -136l-157 -128c-30 49 -79 80 -135 80c-89 0 -164 -64 -164 -179c0 -112 75 -179 164 -179zM412 906c48 0 88 -39 88 -86
c0 -48 -40 -87 -88 -87c-49 0 -89 39 -89 87c0 47 40 86 89 86z" />
    <glyph glyph-name="Ccaron" unicode="&#x10c;" horiz-adv-x="728" 
d="M412 173c56 0 105 31 135 80l157 -128c-69 -83 -174 -135 -292 -135c-207 0 -375 162 -375 362s168 363 375 363c118 0 223 -53 292 -136l-157 -128c-30 49 -79 80 -135 80c-89 0 -164 -64 -164 -179c0 -112 75 -179 164 -179zM353 746l-148 167h125l82 -80l82 80h127
l-148 -167h-120z" />
    <glyph glyph-name="ccircumflex" unicode="&#x109;" horiz-adv-x="568" 
d="M421 219l124 -112c-49 -72 -129 -117 -218 -117c-165 0 -299 126 -299 282c0 157 134 283 299 283c92 0 171 -45 220 -116l-126 -113c-18 36 -54 60 -94 60c-58 0 -105 -51 -105 -114c0 -62 47 -113 105 -113c40 0 76 24 94 60zM111 605l148 167h120l148 -167h-127
l-82 80l-82 -80h-125z" />
    <glyph glyph-name="cacute" unicode="&#x107;" horiz-adv-x="568" 
d="M421 219l124 -112c-49 -72 -129 -117 -218 -117c-165 0 -299 126 -299 282c0 157 134 283 299 283c92 0 171 -45 220 -116l-126 -113c-18 36 -54 60 -94 60c-58 0 -105 -51 -105 -114c0 -62 47 -113 105 -113c40 0 76 24 94 60zM584 775l-197 -170h-116l101 187z" />
    <glyph glyph-name="cdotaccent" unicode="&#x10b;" horiz-adv-x="568" 
d="M421 219l124 -112c-49 -72 -129 -117 -218 -117c-165 0 -299 126 -299 282c0 157 134 283 299 283c92 0 171 -45 220 -116l-126 -113c-18 36 -54 60 -94 60c-58 0 -105 -51 -105 -114c0 -62 47 -113 105 -113c40 0 76 24 94 60zM327 765c48 0 88 -39 88 -86
c0 -48 -40 -87 -88 -87c-49 0 -89 39 -89 87c0 47 40 86 89 86z" />
    <glyph glyph-name="ccaron" unicode="&#x10d;" horiz-adv-x="568" 
d="M421 219l124 -112c-49 -72 -129 -117 -218 -117c-165 0 -299 126 -299 282c0 157 134 283 299 283c92 0 171 -45 220 -116l-126 -113c-18 36 -54 60 -94 60c-58 0 -105 -51 -105 -114c0 -62 47 -113 105 -113c40 0 76 24 94 60zM269 605l-148 167h125l82 -80l82 80h127
l-148 -167h-120z" />
    <glyph glyph-name="Dcroat" unicode="&#x110;" horiz-adv-x="852" 
d="M66 272v160h79v273h316c196 0 355 -158 355 -353c0 -187 -147 -352 -332 -352h-339v272h-79zM344 178h122c82 0 148 80 148 174c0 96 -69 175 -153 175h-117v-95h117v-160h-117v-94zM165 752v120h316v-120h-316z" />
    <glyph glyph-name="Dcaron" unicode="&#x10e;" horiz-adv-x="768" 
d="M731 352c0 -187 -147 -352 -332 -352h-339v705h316c196 0 355 -158 355 -353zM259 178h122c82 3 148 80 148 174c0 96 -69 175 -153 175h-117v-349zM265 746l-148 167h125l82 -80l82 80h127l-148 -167h-120z" />
    <glyph glyph-name="dcaron" unicode="&#x10f;" horiz-adv-x="861" 
d="M429 754h199v-754h-199v17c-42 -18 -85 -28 -127 -28c-150 0 -271 109 -271 283c0 178 121 283 271 283c41 0 86 -10 127 -28v227zM339 159c33 0 65 12 90 32v163c-25 20 -57 32 -90 32c-68 0 -113 -47 -113 -114c0 -72 45 -113 113 -113zM768 706c56 0 101 -38 101 -115
c0 -79 -23 -202 -189 -202l-27 75c69 0 88 19 94 44c-46 10 -80 49 -80 99c0 55 45 99 101 99z" />
    <glyph glyph-name="dcroat" unicode="&#x111;" horiz-adv-x="677" 
d="M697 714v-162h-69v-552h-199v17c-42 -18 -85 -28 -127 -28c-150 0 -271 109 -271 283c0 178 121 283 271 283c41 0 86 -10 127 -28v25h-62v162h62v40h199v-40h69zM339 159c33 0 65 12 90 32v163c-25 20 -57 32 -90 32c-68 0 -113 -47 -113 -114c0 -72 45 -113 113 -113z
" />
    <glyph glyph-name="Emacron" unicode="&#x112;" horiz-adv-x="669" 
d="M259 167h374v-167h-573v705h552v-167h-353v-115h291v-162h-291v-94zM175 752v120h316v-120h-316z" />
    <glyph glyph-name="Edotaccent" unicode="&#x116;" horiz-adv-x="669" 
d="M259 167h374v-167h-573v705h552v-167h-353v-115h291v-162h-291v-94zM334 906c48 0 88 -39 88 -86c0 -48 -40 -87 -88 -87c-49 0 -89 39 -89 87c0 47 40 86 89 86z" />
    <glyph glyph-name="Ebreve" unicode="&#x114;" horiz-adv-x="669" 
d="M259 167h374v-167h-573v705h552v-167h-353v-115h291v-162h-291v-94zM334 744c-114 0 -192 51 -201 159l116 10c13 -33 35 -56 85 -56s72 23 84 56l117 -10c-10 -108 -87 -159 -201 -159z" />
    <glyph glyph-name="Ecaron" unicode="&#x11a;" horiz-adv-x="669" 
d="M259 167h374v-167h-573v705h552v-167h-353v-115h291v-162h-291v-94zM275 746l-148 167h125l82 -80l82 80h127l-148 -167h-120z" />
    <glyph glyph-name="Eogonek" unicode="&#x118;" horiz-adv-x="669" 
d="M664 -88v-84c-19 -2 -39 -3 -56 -3c-85 0 -130 31 -130 102c0 20 10 54 28 73h-446v705h552v-167h-353v-115h291v-162h-291v-94h374v-167c-13 -16 -20 -35 -20 -46c0 -35 30 -42 51 -42z" />
    <glyph glyph-name="emacron" unicode="&#x113;" horiz-adv-x="603" 
d="M574 219h-348c16 -47 53 -83 115 -83c41 0 71 26 98 67l120 -97c-50 -71 -140 -116 -250 -116c-165 0 -280 126 -280 282c0 157 115 283 280 283c163 0 266 -118 266 -283c0 -18 -1 -53 -1 -53zM226 329h162c0 31 -28 77 -79 77c-39 0 -75 -35 -83 -77zM158 611v120h316
v-120h-316z" />
    <glyph glyph-name="edotaccent" unicode="&#x117;" horiz-adv-x="603" 
d="M574 219h-348c16 -47 53 -83 115 -83c41 0 71 26 98 67l120 -97c-50 -71 -140 -116 -250 -116c-165 0 -280 126 -280 282c0 157 115 283 280 283c163 0 266 -118 266 -283c0 -18 -1 -53 -1 -53zM226 329h162c0 31 -28 77 -79 77c-39 0 -75 -35 -83 -77zM309 765
c48 0 88 -39 88 -86c0 -48 -40 -87 -88 -87c-49 0 -89 39 -89 87c0 47 40 86 89 86z" />
    <glyph glyph-name="ebreve" unicode="&#x115;" horiz-adv-x="603" 
d="M574 219h-348c16 -47 53 -83 115 -83c41 0 71 26 98 67l120 -97c-50 -71 -140 -116 -250 -116c-165 0 -280 126 -280 282c0 157 115 283 280 283c163 0 266 -118 266 -283c0 -18 -1 -53 -1 -53zM226 329h162c0 31 -28 77 -79 77c-39 0 -75 -35 -83 -77zM309 603
c-114 0 -192 51 -201 159l116 10c13 -33 35 -56 85 -56s72 23 84 56l117 -10c-10 -108 -87 -159 -201 -159z" />
    <glyph glyph-name="ecaron" unicode="&#x11b;" horiz-adv-x="603" 
d="M574 219h-348c16 -47 53 -83 115 -83c41 0 71 26 98 67l120 -97c-50 -71 -140 -116 -250 -116c-165 0 -280 126 -280 282c0 157 115 283 280 283c163 0 266 -118 266 -283c0 -18 -1 -53 -1 -53zM226 329h162c0 31 -28 77 -79 77c-39 0 -75 -35 -83 -77zM250 605l-148 167
h125l82 -80l82 80h127l-148 -167h-120z" />
    <glyph glyph-name="eogonek" unicode="&#x119;" horiz-adv-x="603" 
d="M438 -85v-84c-19 -2 -39 -3 -56 -3c-85 0 -130 31 -130 102c0 17 7 43 20 62c-145 17 -243 136 -243 280c0 157 115 283 280 283c163 0 266 -118 266 -283c0 -18 -1 -53 -1 -53h-348c16 -47 53 -83 115 -83c41 0 71 26 98 67l120 -97c-34 -49 -87 -85 -152 -103
c-13 -16 -20 -35 -20 -46c0 -35 30 -42 51 -42zM226 329h162c0 31 -28 77 -79 77c-39 0 -75 -35 -83 -77z" />
    <glyph glyph-name="Gcircumflex" unicode="&#x11c;" horiz-adv-x="767" 
d="M400 366h322v-272c-79 -64 -187 -104 -308 -104c-208 0 -377 162 -377 362s169 362 377 362c118 0 215 -39 283 -102l-127 -135c-38 35 -96 55 -156 55c-93 0 -169 -81 -169 -180c0 -109 76 -191 169 -191c38 0 72 11 103 30v13h-117v162zM207 746l148 167h120l148 -167
h-127l-82 80l-82 -80h-125z" />
    <glyph glyph-name="Gdotaccent" unicode="&#x120;" horiz-adv-x="767" 
d="M400 366h322v-272c-79 -64 -187 -104 -308 -104c-208 0 -377 162 -377 362s169 362 377 362c118 0 215 -39 283 -102l-127 -135c-38 35 -96 55 -156 55c-93 0 -169 -81 -169 -180c0 -109 76 -191 169 -191c38 0 72 11 103 30v13h-117v162zM414 906c48 0 88 -39 88 -86
c0 -48 -40 -87 -88 -87c-49 0 -89 39 -89 87c0 47 40 86 89 86z" />
    <glyph glyph-name="Gbreve" unicode="&#x11e;" horiz-adv-x="767" 
d="M400 366h322v-272c-79 -64 -187 -104 -308 -104c-208 0 -377 162 -377 362s169 362 377 362c118 0 215 -39 283 -102l-127 -135c-38 35 -96 55 -156 55c-93 0 -169 -81 -169 -180c0 -109 76 -191 169 -191c38 0 72 11 103 30v13h-117v162zM414 744
c-114 0 -192 51 -201 159l116 10c13 -33 35 -56 85 -56s72 23 84 56l117 -10c-10 -108 -87 -159 -201 -159z" />
    <glyph glyph-name="gcircumflex" unicode="&#x11d;" horiz-adv-x="677" 
d="M429 545h199v-419c0 -144 -77 -317 -301 -317c-142 0 -170 13 -259 38l37 137c51 -13 111 -32 172 -32c69 0 120 24 141 91c0 1 1 2 1 3c-39 -15 -79 -23 -117 -23c-150 0 -271 102 -271 267c0 166 121 265 271 265c42 0 84 -9 127 -26v16zM227 289c0 -63 43 -98 112 -98
c33 0 65 11 90 29v138c-24 18 -57 28 -90 28c-69 0 -112 -40 -112 -97zM129 605l148 167h120l148 -167h-127l-82 80l-82 -80h-125z" />
    <glyph glyph-name="gdotaccent" unicode="&#x121;" horiz-adv-x="677" 
d="M429 545h199v-419c0 -144 -77 -317 -301 -317c-142 0 -170 13 -259 38l37 137c51 -13 111 -32 172 -32c69 0 120 24 141 91c0 1 1 2 1 3c-39 -15 -79 -23 -117 -23c-150 0 -271 102 -271 267c0 166 121 265 271 265c42 0 84 -9 127 -26v16zM227 289c0 -63 43 -98 112 -98
c33 0 65 11 90 29v138c-24 18 -57 28 -90 28c-69 0 -112 -40 -112 -97zM336 765c48 0 88 -39 88 -86c0 -48 -40 -87 -88 -87c-49 0 -89 39 -89 87c0 47 40 86 89 86z" />
    <glyph glyph-name="gbreve" unicode="&#x11f;" horiz-adv-x="677" 
d="M429 545h199v-419c0 -144 -77 -317 -301 -317c-142 0 -170 13 -259 38l37 137c51 -13 111 -32 172 -32c69 0 120 24 141 91c0 1 1 2 1 3c-39 -15 -79 -23 -117 -23c-150 0 -271 102 -271 267c0 166 121 265 271 265c42 0 84 -9 127 -26v16zM227 289c0 -63 43 -98 112 -98
c33 0 65 11 90 29v138c-24 18 -57 28 -90 28c-69 0 -112 -40 -112 -97zM336 603c-114 0 -192 51 -201 159l116 10c13 -33 35 -56 85 -56s72 23 84 56l117 -10c-10 -108 -87 -159 -201 -159z" />
    <glyph glyph-name="Gcommaaccent" unicode="&#x122;" horiz-adv-x="767" 
d="M400 366h322v-272c-79 -64 -187 -104 -308 -104c-208 0 -377 162 -377 362s169 362 377 362c118 0 215 -39 283 -102l-127 -135c-38 35 -96 55 -156 55c-93 0 -169 -81 -169 -180c0 -109 76 -191 169 -191c38 0 72 11 103 30v13h-117v162zM421 -39c57 0 101 -38 101 -115
c0 -79 -23 -202 -189 -202l-26 75c68 0 87 19 94 44c-46 9 -81 49 -81 98c0 55 45 100 101 100z" />
    <glyph glyph-name="gcommaaccent" unicode="&#x123;" horiz-adv-x="677" 
d="M429 545h199v-419c0 -144 -77 -317 -301 -317c-142 0 -170 13 -259 38l37 137c51 -13 111 -32 172 -32c69 0 120 24 141 91c0 1 1 2 1 3c-39 -15 -79 -23 -117 -23c-150 0 -271 102 -271 267c0 166 121 265 271 265c42 0 84 -9 127 -26v16zM227 289c0 -63 43 -98 112 -98
c33 0 65 11 90 29v138c-24 18 -57 28 -90 28c-69 0 -112 -40 -112 -97zM315 598c-57 0 -101 38 -101 115c0 79 23 202 189 202l26 -75c-68 0 -87 -19 -94 -44c46 -9 81 -49 81 -98c0 -55 -45 -100 -101 -100z" />
    <glyph glyph-name="Hcircumflex" unicode="&#x124;" horiz-adv-x="763" 
d="M505 705h198v-705h-198v211h-246v-211h-199v705h199v-327h246v327zM174 746l148 167h120l148 -167h-127l-82 80l-82 -80h-125z" />
    <glyph glyph-name="hcircumflex" unicode="&#x125;" horiz-adv-x="634" 
d="M354 555c176 0 233 -71 233 -257v-298h-199v298c0 61 -14 88 -71 88c-27 0 -52 -9 -69 -24v-362h-199v754h71l141 159h120l148 -167h-127l-82 80l-74 -72h2v-219c35 13 70 20 106 20z" />
    <glyph glyph-name="Hbar" unicode="&#x126;" horiz-adv-x="763" 
d="M39 534v126h21v45h199v-45h246v45h198v-45h19v-126h-19v-534h-198v211h-246v-211h-199v534h-21zM259 378h246v156h-246v-156z" />
    <glyph glyph-name="hbar" unicode="&#x127;" horiz-adv-x="634" 
d="M14 534v126h35v94h199v-94h34v-115c24 6 47 10 72 10c176 0 233 -71 233 -257v-298h-199v298c0 61 -14 88 -71 88c-27 0 -52 -9 -69 -24v-362h-199v534h-35z" />
    <glyph glyph-name="Itilde" unicode="&#x128;" horiz-adv-x="333" 
d="M269 705v-705h-205v705h205zM42 742l-86 10c0 112 56 177 125 177c61 0 124 -38 156 -38c28 0 47 25 60 54l85 -10c0 -105 -56 -177 -126 -177c-60 0 -125 38 -156 38c-27 0 -45 -23 -58 -54z" />
    <glyph glyph-name="Imacron" unicode="&#x12a;" horiz-adv-x="333" 
d="M269 705v-705h-205v705h205zM9 765v120h316v-120h-316z" />
    <glyph glyph-name="Idotaccent" unicode="&#x130;" horiz-adv-x="333" 
d="M269 705v-705h-205v705h205zM168 919c48 0 88 -39 88 -86c0 -48 -40 -87 -88 -87c-49 0 -89 39 -89 87c0 47 40 86 89 86z" />
    <glyph glyph-name="Ibreve" unicode="&#x12c;" horiz-adv-x="333" 
d="M269 705v-705h-205v705h205zM168 757c-114 0 -192 51 -201 159l116 10c13 -33 35 -56 85 -56s72 23 84 56l117 -10c-10 -108 -87 -159 -201 -159z" />
    <glyph glyph-name="Iogonek" unicode="&#x12e;" horiz-adv-x="333" 
d="M300 -88v-84c-19 -2 -39 -3 -56 -3c-85 0 -130 31 -130 102c0 20 10 54 28 73h-78v705h205v-705c-13 -16 -20 -35 -20 -46c0 -35 30 -42 51 -42z" />
    <glyph glyph-name="itilde" unicode="&#x129;" 
d="M28 578l-86 10c0 112 56 177 125 177c61 0 124 -38 156 -38c28 0 47 25 60 54l85 -10c0 -105 -56 -177 -126 -177c-60 0 -125 38 -156 38c-27 0 -45 -23 -58 -54zM53 0v545h199v-545h-199z" />
    <glyph glyph-name="imacron" unicode="&#x12b;" 
d="M-5 601v120h316v-120h-316zM53 0v545h199v-545h-199z" />
    <glyph glyph-name="ibreve" unicode="&#x12d;" 
d="M154 593c-114 0 -192 51 -201 159l116 10c13 -33 35 -56 85 -56s72 23 84 56l117 -10c-10 -108 -87 -159 -201 -159zM53 0v545h199v-545h-199z" />
    <glyph glyph-name="iogonek" unicode="&#x12f;" 
d="M53 0v545h199v-545c-13 -16 -20 -35 -20 -46c0 -35 30 -42 51 -42v-84c-19 -2 -39 -3 -56 -3c-85 0 -130 31 -130 102c0 20 10 54 28 73h-72zM152 577c-60 0 -109 48 -109 107s49 107 109 107c59 0 108 -48 108 -107s-49 -107 -108 -107z" />
    <glyph glyph-name="IJ" unicode="&#x132;" horiz-adv-x="895" 
d="M269 705v-705h-205v705h205zM638 705h205v-417c0 -176 -81 -298 -255 -298c-133 0 -242 102 -252 233l175 16c8 -41 29 -67 70 -67c28 0 57 28 57 56v477z" />
    <glyph glyph-name="ij" unicode="&#x133;" horiz-adv-x="613" 
d="M53 0v545h199v-545h-199zM152 577c-60 0 -109 48 -109 107s49 107 109 107c59 0 108 -48 108 -107s-49 -107 -108 -107zM358 77v468h199v-557c0 -119 -78 -179 -173 -179c-45 0 -80 5 -103 11v150c77 0 77 17 77 107zM457 577c-60 0 -109 48 -109 107s49 107 109 107
s108 -48 108 -107s-48 -107 -108 -107z" />
    <glyph glyph-name="Jcircumflex" unicode="&#x134;" horiz-adv-x="561" 
d="M305 705h205v-417c0 -176 -81 -298 -255 -298c-133 0 -242 102 -252 233l175 16c8 -41 29 -67 70 -67c28 0 57 28 57 56v477zM59 746l148 167h120l148 -167h-127l-82 80l-82 -80h-125z" />
    <glyph glyph-name="jcircumflex" unicode="&#x135;" horiz-adv-x="308" 
d="M53 77v468h199v-557c0 -119 -78 -179 -173 -179c-45 0 -80 5 -103 11v150c77 0 77 17 77 107zM-53 605l148 167h120l148 -167h-127l-82 80l-82 -80h-125z" />
    <glyph glyph-name="Kcommaaccent" unicode="&#x136;" horiz-adv-x="733" 
d="M429 352l314 -352h-268l-177 202l-39 -48v-154h-199v705h199v-271l228 271h245zM354 -39c57 0 101 -38 101 -115c0 -79 -23 -202 -189 -202l-26 75c68 0 87 19 94 44c-46 9 -81 49 -81 98c0 55 45 100 101 100z" />
    <glyph glyph-name="kcommaaccent" unicode="&#x137;" horiz-adv-x="602" 
d="M419 330l191 -330h-219l-102 180l-41 -52v-128h-199v754h199v-368l128 159h228zM312 -39c57 0 101 -38 101 -115c0 -79 -23 -202 -189 -202l-26 75c68 0 87 19 94 44c-46 9 -81 49 -81 98c0 55 45 100 101 100z" />
    <glyph glyph-name="kgreenlandic" unicode="&#x138;" horiz-adv-x="602" 
d="M419 330l191 -330h-219l-101 177l-42 -49v-128h-199v544h199v-158l128 159h228z" />
    <glyph glyph-name="Lacute" unicode="&#x139;" horiz-adv-x="618" 
d="M265 162h333v-162h-538v705h205v-543zM375 916l-197 -170h-116l101 187z" />
    <glyph glyph-name="lacute" unicode="&#x13a;" 
d="M53 0v754h199v-754h-199zM409 965l-197 -170h-116l101 187z" />
    <glyph glyph-name="Lcommaaccent" unicode="&#x13b;" horiz-adv-x="618" 
d="M265 162h333v-162h-538v705h205v-543zM324 -39c57 0 101 -38 101 -115c0 -79 -23 -202 -189 -202l-26 75c68 0 87 19 94 44c-46 9 -81 49 -81 98c0 55 45 100 101 100z" />
    <glyph glyph-name="lcommaaccent" unicode="&#x13c;" 
d="M53 0v754h199v-754h-199zM144 -39c57 0 101 -38 101 -115c0 -79 -23 -202 -189 -202l-26 75c68 0 87 19 94 44c-46 9 -81 49 -81 98c0 55 45 100 101 100z" />
    <glyph glyph-name="Ldot" unicode="&#x13f;" horiz-adv-x="618" 
d="M265 162h333v-162h-538v705h205v-543zM546 514c0 -59 -48 -107 -109 -107c-60 0 -108 48 -108 107s48 107 108 107c61 0 109 -48 109 -107z" />
    <glyph glyph-name="ldot" unicode="&#x140;" horiz-adv-x="537" 
d="M53 0v754h199v-754h-199zM512 514c0 -59 -48 -107 -109 -107c-60 0 -108 48 -108 107s48 107 108 107c61 0 109 -48 109 -107z" />
    <glyph glyph-name="Lcaron" unicode="&#x13d;" horiz-adv-x="618" 
d="M265 162h333v-162h-538v705h205v-543zM440 707c56 0 101 -38 101 -115c0 -79 -23 -202 -189 -202l-27 75c69 0 88 19 94 44c-46 10 -80 49 -80 99c0 55 45 99 101 99z" />
    <glyph glyph-name="lcaron" unicode="&#x13e;" horiz-adv-x="526" 
d="M53 0v754h199v-754h-199zM425 706c56 0 101 -38 101 -115c0 -79 -23 -202 -189 -202l-27 75c69 0 88 19 94 44c-46 10 -80 49 -80 99c0 55 45 99 101 99z" />
    <glyph glyph-name="Nacute" unicode="&#x143;" horiz-adv-x="786" 
d="M521 705h205v-705h-96l-365 349v-349h-205v705h96l365 -349v349zM642 916l-197 -170h-116l101 187z" />
    <glyph glyph-name="Ncaron" unicode="&#x147;" horiz-adv-x="786" 
d="M521 705h205v-705h-96l-365 349v-349h-205v705h96l365 -349v349zM327 746l-148 167h125l82 -80l82 80h127l-148 -167h-120z" />
    <glyph glyph-name="nacute" unicode="&#x144;" horiz-adv-x="634" 
d="M354 555c176 0 233 -71 233 -257v-298h-199v298c0 61 -14 88 -71 88c-27 0 -52 -10 -69 -27v-359h-199v545h199v-19c35 19 70 29 106 29zM569 765l-197 -170h-116l101 187z" />
    <glyph glyph-name="ncaron" unicode="&#x148;" horiz-adv-x="634" 
d="M354 555c176 0 233 -71 233 -257v-298h-199v298c0 61 -14 88 -71 88c-27 0 -52 -10 -69 -27v-359h-199v545h199v-19c35 19 70 29 106 29zM254 595l-148 167h125l82 -80l82 80h127l-148 -167h-120z" />
    <glyph glyph-name="Ncommaaccent" unicode="&#x145;" horiz-adv-x="786" 
d="M521 705h205v-705h-96l-365 349v-349h-205v705h96l365 -349v349zM388 -39c57 0 101 -38 101 -115c0 -79 -23 -202 -189 -202l-26 75c68 0 87 19 94 44c-46 9 -81 49 -81 98c0 55 45 100 101 100z" />
    <glyph glyph-name="ncommaaccent" unicode="&#x146;" horiz-adv-x="634" 
d="M354 555c176 0 233 -71 233 -257v-298h-199v298c0 61 -14 88 -71 88c-27 0 -52 -10 -69 -27v-359h-199v545h199v-19c35 19 70 29 106 29zM316 -39c57 0 101 -38 101 -115c0 -79 -23 -202 -189 -202l-26 75c68 0 87 19 94 44c-46 9 -81 49 -81 98c0 55 45 100 101 100z
" />
    <glyph glyph-name="napostrophe" unicode="&#x149;" horiz-adv-x="634" 
d="M354 555c176 0 233 -71 233 -257v-298h-199v298c0 61 -14 88 -71 88c-27 0 -52 -10 -69 -27v-359h-199v545h199v-19c35 19 70 29 106 29zM157 919c57 0 101 -38 101 -115c0 -79 -23 -202 -189 -202l-26 75c68 0 87 19 94 44c-46 9 -81 49 -81 98c0 55 45 100 101 100z
" />
    <glyph glyph-name="Eng" unicode="&#x14a;" horiz-adv-x="786" 
d="M521 705h205v-687c0 -177 -79 -289 -255 -289c-133 0 -242 103 -252 233l175 16c8 -41 29 -67 70 -67c33 0 58 31 58 63v130l-257 245v-349h-205v705h96l365 -349v349z" />
    <glyph glyph-name="eng" unicode="&#x14b;" horiz-adv-x="634" 
d="M354 555c176 0 233 -71 233 -257v-310c0 -119 -77 -179 -172 -179c-46 0 -80 5 -104 11v150c68 0 77 14 77 77v251c0 61 -14 88 -71 88c-27 0 -52 -10 -69 -27v-359h-199v545h199v-19c35 19 70 29 106 29z" />
    <glyph glyph-name="Omacron" unicode="&#x14c;" horiz-adv-x="829" 
d="M413 714c209 0 377 -162 377 -362s-168 -362 -377 -362c-208 0 -377 162 -377 362s169 362 377 362zM413 172c94 0 169 80 169 180c0 99 -75 180 -169 180c-92 0 -168 -81 -168 -180c0 -100 76 -180 168 -180zM254 752v120h316v-120h-316z" />
    <glyph glyph-name="Obreve" unicode="&#x14e;" horiz-adv-x="829" 
d="M413 714c209 0 377 -162 377 -362s-168 -362 -377 -362c-208 0 -377 162 -377 362s169 362 377 362zM413 172c94 0 169 80 169 180c0 99 -75 180 -169 180c-92 0 -168 -81 -168 -180c0 -100 76 -180 168 -180zM413 744c-114 0 -192 51 -201 159l116 10
c13 -33 35 -56 85 -56s72 23 84 56l117 -10c-10 -108 -87 -159 -201 -159z" />
    <glyph glyph-name="Ohungarumlaut" unicode="&#x150;" horiz-adv-x="829" 
d="M413 714c209 0 377 -162 377 -362s-168 -362 -377 -362c-208 0 -377 162 -377 362s169 362 377 362zM413 172c94 0 169 80 169 180c0 99 -75 180 -169 180c-92 0 -168 -81 -168 -180c0 -100 76 -180 168 -180zM440 754l64 117l-122 -117h-129l99 185l159 -55l30 55
l174 -59l-146 -126h-129z" />
    <glyph glyph-name="omacron" unicode="&#x14d;" horiz-adv-x="654" 
d="M326 555c165 0 299 -126 299 -283c0 -156 -134 -282 -299 -282s-299 126 -299 282c0 157 134 283 299 283zM326 159c58 0 105 51 105 113c0 63 -47 114 -105 114s-105 -51 -105 -114c0 -62 47 -113 105 -113zM167 601v120h316v-120h-316z" />
    <glyph glyph-name="obreve" unicode="&#x14f;" horiz-adv-x="654" 
d="M326 555c165 0 299 -126 299 -283c0 -156 -134 -282 -299 -282s-299 126 -299 282c0 157 134 283 299 283zM326 159c58 0 105 51 105 113c0 63 -47 114 -105 114s-105 -51 -105 -114c0 -62 47 -113 105 -113zM326 593c-114 0 -192 51 -201 159l116 10
c13 -33 35 -56 85 -56s72 23 84 56l117 -10c-10 -108 -87 -159 -201 -159z" />
    <glyph glyph-name="ohungarumlaut" unicode="&#x151;" horiz-adv-x="654" 
d="M326 555c165 0 299 -126 299 -283c0 -156 -134 -282 -299 -282s-299 126 -299 282c0 157 134 283 299 283zM353 603l64 117l-122 -117h-129l99 185l159 -55l30 55l174 -59l-146 -126h-129zM326 159c58 0 105 51 105 113c0 63 -47 114 -105 114s-105 -51 -105 -114
c0 -62 47 -113 105 -113z" />
    <glyph glyph-name="Racute" unicode="&#x154;" horiz-adv-x="722" 
d="M467 0l-109 150c-2 1 -4 1 -6 1h-87v-151h-205v705h335c219 0 294 -129 294 -269c0 -115 -41 -201 -129 -247l151 -189h-244zM265 538v-227h78c101 0 131 56 131 110c0 59 -28 117 -114 117h-95zM603 916l-197 -170h-116l101 187z" />
    <glyph glyph-name="Rcaron" unicode="&#x158;" horiz-adv-x="722" 
d="M467 0l-109 150c-2 1 -4 1 -6 1h-87v-151h-205v705h335c219 0 294 -129 294 -269c0 -115 -41 -201 -129 -247l151 -189h-244zM265 538v-227h78c101 0 131 56 131 110c0 59 -28 117 -114 117h-95zM287 746l-148 167h125l82 -80l82 80h127l-148 -167h-120z" />
    <glyph glyph-name="racute" unicode="&#x155;" horiz-adv-x="438" 
d="M249 545v-50c41 36 95 57 165 61v-209c-19 3 -36 4 -51 4c-97 0 -114 -55 -114 -99v-252h-199v545h199zM389 775l-197 -170h-116l101 187z" />
    <glyph glyph-name="rcaron" unicode="&#x159;" horiz-adv-x="438" 
d="M249 545v-50c41 36 95 57 165 61v-209c-19 3 -36 4 -51 4c-97 0 -114 -55 -114 -99v-252h-199v545h199zM168 605l-148 167h125l82 -80l82 80h127l-148 -167h-120z" />
    <glyph glyph-name="Rcommaaccent" unicode="&#x156;" horiz-adv-x="722" 
d="M467 0l-109 150c-2 1 -4 1 -6 1h-87v-151h-205v705h335c219 0 294 -129 294 -269c0 -115 -41 -201 -129 -247l151 -189h-244zM265 538v-227h78c101 0 131 56 131 110c0 59 -28 117 -114 117h-95zM359 -39c57 0 101 -38 101 -115c0 -79 -23 -202 -189 -202l-26 75
c68 0 87 19 94 44c-46 9 -81 49 -81 98c0 55 45 100 101 100z" />
    <glyph glyph-name="rcommaaccent" unicode="&#x157;" horiz-adv-x="438" 
d="M249 545v-50c41 36 95 57 165 61v-209c-19 3 -36 4 -51 4c-97 0 -114 -55 -114 -99v-252h-199v545h199zM145 -39c57 0 101 -38 101 -115c0 -79 -23 -202 -189 -202l-26 75c68 0 87 19 94 44c-46 9 -81 49 -81 98c0 55 45 100 101 100z" />
    <glyph glyph-name="Scircumflex" unicode="&#x15c;" horiz-adv-x="653" 
d="M361 441c163 -35 262 -87 262 -221c0 -144 -114 -230 -285 -230c-126 0 -197 12 -309 68l74 150c86 -41 163 -51 242 -51c47 0 72 15 72 45c0 24 -19 42 -112 63c-149 34 -264 74 -264 223c0 132 103 227 273 227c122 0 210 -30 284 -58l-82 -155c-64 24 -145 46 -208 46
c-42 0 -61 -19 -61 -43c0 -28 20 -43 114 -64zM106 746l148 167h120l148 -167h-127l-82 80l-82 -80h-125z" />
    <glyph glyph-name="Sacute" unicode="&#x15a;" horiz-adv-x="653" 
d="M361 441c163 -35 262 -87 262 -221c0 -144 -114 -230 -285 -230c-126 0 -197 12 -309 68l74 150c86 -41 163 -51 242 -51c47 0 72 15 72 45c0 24 -19 42 -112 63c-149 34 -264 74 -264 223c0 132 103 227 273 227c122 0 210 -30 284 -58l-82 -155c-64 24 -145 46 -208 46
c-42 0 -61 -19 -61 -43c0 -28 20 -43 114 -64zM569 916l-197 -170h-116l101 187z" />
    <glyph glyph-name="Scaron" unicode="&#x160;" horiz-adv-x="653" 
d="M361 441c163 -35 262 -87 262 -221c0 -144 -114 -230 -285 -230c-126 0 -197 12 -309 68l74 150c86 -41 163 -51 242 -51c47 0 72 15 72 45c0 24 -19 42 -112 63c-149 34 -264 74 -264 223c0 132 103 227 273 227c122 0 210 -30 284 -58l-82 -155c-64 24 -145 46 -208 46
c-42 0 -61 -19 -61 -43c0 -28 20 -43 114 -64zM254 746l-148 167h125l82 -80l82 80h127l-148 -167h-120z" />
    <glyph glyph-name="scircumflex" unicode="&#x15d;" horiz-adv-x="513" 
d="M23 43l73 139c73 -31 112 -44 174 -44c24 0 37 9 37 21c0 13 -2 19 -74 36c-116 26 -201 66 -201 183c0 105 80 177 213 177c96 0 165 -23 222 -45l-67 -138c-49 18 -111 34 -159 34c-31 0 -33 -6 -33 -18c0 -15 15 -24 87 -40c126 -28 191 -73 191 -178
c0 -115 -91 -180 -222 -180c-98 0 -151 8 -241 53zM43 595l148 167h120l148 -167h-127l-82 80l-82 -80h-125z" />
    <glyph glyph-name="sacute" unicode="&#x15b;" horiz-adv-x="513" 
d="M23 43l73 139c73 -31 112 -44 174 -44c24 0 37 9 37 21c0 13 -2 19 -74 36c-116 26 -201 66 -201 183c0 105 80 177 213 177c96 0 165 -23 222 -45l-67 -138c-49 18 -111 34 -159 34c-31 0 -33 -6 -33 -18c0 -15 15 -24 87 -40c126 -28 191 -73 191 -178
c0 -115 -91 -180 -222 -180c-98 0 -151 8 -241 53zM506 765l-197 -170h-116l101 187z" />
    <glyph glyph-name="scaron" unicode="&#x161;" horiz-adv-x="513" 
d="M23 43l73 139c73 -31 112 -44 174 -44c24 0 37 9 37 21c0 13 -2 19 -74 36c-116 26 -201 66 -201 183c0 105 80 177 213 177c96 0 165 -23 222 -45l-67 -138c-49 18 -111 34 -159 34c-31 0 -33 -6 -33 -18c0 -15 15 -24 87 -40c126 -28 191 -73 191 -178
c0 -115 -91 -180 -222 -180c-98 0 -151 8 -241 53zM191 595l-148 167h125l82 -80l82 80h127l-148 -167h-120z" />
    <glyph glyph-name="Scedilla" unicode="&#x15e;" horiz-adv-x="653" 
d="M220 -79l68 70c-97 3 -163 19 -259 67l74 150c86 -41 163 -51 242 -51c47 0 72 15 72 45c0 24 -19 42 -112 63c-149 34 -264 74 -264 223c0 132 103 227 273 227c122 0 210 -30 284 -58l-82 -155c-64 24 -145 46 -208 46c-42 0 -61 -19 -61 -43c0 -28 20 -43 114 -64
c163 -35 262 -87 262 -221c0 -123 -83 -203 -212 -224l-19 -48s19 -17 19 -46c0 -89 -130 -92 -200 -92h-16l-13 62h19c32 0 85 1 85 27c0 14 -29 22 -66 22z" />
    <glyph glyph-name="scedilla" unicode="&#x15f;" horiz-adv-x="513" 
d="M152 -79l68 70c-72 3 -122 14 -197 52l73 139c73 -31 112 -44 174 -44c24 0 37 9 37 21c0 13 -2 19 -74 36c-116 26 -201 66 -201 183c0 105 80 177 213 177c96 0 165 -23 222 -45l-67 -138c-49 18 -111 34 -159 34c-31 0 -33 -6 -33 -18c0 -15 15 -24 87 -40
c126 -28 191 -73 191 -178c0 -90 -56 -150 -142 -171l-20 -51s19 -17 19 -46c0 -89 -130 -92 -200 -92h-16l-13 62h19c32 0 85 1 85 27c0 14 -29 22 -66 22z" />
    <glyph glyph-name="Tcedilla" unicode="&#x162;" horiz-adv-x="660" 
d="M241 -79l77 79h-89v538h-207v167h618v-167h-206v-538h-1l-20 -52s19 -17 19 -46c0 -89 -130 -92 -200 -92h-16l-13 62h19c32 0 85 1 85 27c0 14 -29 22 -66 22z" />
    <glyph glyph-name="tcedilla" unicode="&#x163;" horiz-adv-x="434" 
d="M169 -79l68 70c-86 8 -152 66 -152 178v222h-65v154h65v209h199v-209h118v-154h-118v-137c0 -83 0 -103 67 -103c13 0 29 0 49 1v-139s-15 -6 -39 -12h1l-21 -53s19 -17 19 -46c0 -89 -130 -92 -200 -92h-16l-13 62h19c32 0 85 1 85 27c0 14 -29 22 -66 22z" />
    <glyph glyph-name="Tcaron" unicode="&#x164;" horiz-adv-x="660" 
d="M640 705v-167h-206v-538h-205v538h-207v167h618zM274 746l-148 167h125l82 -80l82 80h127l-148 -167h-120z" />
    <glyph glyph-name="tcaron" unicode="&#x165;" horiz-adv-x="469" 
d="M402 391h-118v-137c0 -83 0 -103 67 -103c13 0 29 0 49 1v-139c1 1 -46 -23 -143 -23c-96 0 -172 59 -172 179v222h-65v154h65v209h199v-209h118v-154zM463 887c56 0 101 -38 101 -115c0 -79 -23 -202 -189 -202l-27 75c69 0 88 19 94 44c-46 10 -80 49 -80 99
c0 55 45 99 101 99z" />
    <glyph glyph-name="tbar" unicode="&#x167;" horiz-adv-x="434" 
d="M40 230v120h45v41h-65v154h65v209h199v-209h118v-154h-118v-41h72v-120h-72c0 -62 7 -79 67 -79c13 0 29 0 49 1v-139c1 1 -46 -23 -143 -23c-96 0 -172 59 -172 179v61h-45z" />
    <glyph glyph-name="Tbar" unicode="&#x166;" horiz-adv-x="660" 
d="M174 315v120h55v103h-207v167h618v-167h-206v-103h56v-120h-56v-315h-205v315h-55z" />
    <glyph glyph-name="Utilde" unicode="&#x168;" horiz-adv-x="758" 
d="M709 705v-422c0 -163 -113 -293 -330 -293c-216 0 -328 129 -328 293v422h199v-369c0 -127 44 -168 129 -168c87 0 131 41 131 168v369h199zM253 729l-86 10c0 112 56 177 125 177c61 0 124 -38 156 -38c28 0 47 25 60 54l85 -10c0 -105 -56 -177 -126 -177
c-60 0 -125 38 -156 38c-27 0 -45 -23 -58 -54z" />
    <glyph glyph-name="Umacron" unicode="&#x16a;" horiz-adv-x="758" 
d="M709 705v-422c0 -163 -113 -293 -330 -293c-216 0 -328 129 -328 293v422h199v-369c0 -127 44 -168 129 -168c87 0 131 41 131 168v369h199zM220 752v120h316v-120h-316z" />
    <glyph glyph-name="Ubreve" unicode="&#x16c;" horiz-adv-x="758" 
d="M709 705v-422c0 -163 -113 -293 -330 -293c-216 0 -328 129 -328 293v422h199v-369c0 -127 44 -168 129 -168c87 0 131 41 131 168v369h199zM379 744c-114 0 -192 51 -201 159l116 10c13 -33 35 -56 85 -56s72 23 84 56l117 -10c-10 -108 -87 -159 -201 -159z" />
    <glyph glyph-name="Uhungarumlaut" unicode="&#x170;" horiz-adv-x="758" 
d="M709 705v-422c0 -163 -113 -293 -330 -293c-216 0 -328 129 -328 293v422h199v-369c0 -127 44 -168 129 -168c87 0 131 41 131 168v369h199zM406 754l64 117l-122 -117h-129l99 185l159 -55l30 55l174 -59l-146 -126h-129z" />
    <glyph glyph-name="Uring" unicode="&#x16e;" horiz-adv-x="758" 
d="M709 705v-422c0 -163 -113 -293 -330 -293c-216 0 -328 129 -328 293v422h199v-369c0 -127 44 -168 129 -168c87 0 131 41 131 168v369h199zM254 770c0 66 59 124 125 124s125 -56 125 -124s-59 -124 -125 -124s-125 58 -125 124zM379 713c32 0 57 25 57 59
c0 32 -26 57 -57 57c-32 0 -57 -26 -57 -59c0 -32 24 -57 57 -57z" />
    <glyph glyph-name="Uogonek" unicode="&#x172;" horiz-adv-x="758" 
d="M509 -88v-84c-19 -2 -39 -3 -56 -3c-85 0 -130 31 -130 102c0 17 8 45 21 64c-193 13 -293 137 -293 292v422h199v-369c0 -127 44 -168 129 -168c87 0 131 41 131 168v369h199v-422c0 -137 -80 -250 -233 -283h2c-13 -16 -20 -35 -20 -46c0 -35 30 -42 51 -42z" />
    <glyph glyph-name="uring" unicode="&#x16f;" horiz-adv-x="633" 
d="M385 545h199v-545h-199v19c-35 -19 -70 -29 -106 -29c-175 0 -233 71 -233 257v298h199v-298c0 -61 15 -88 71 -88c28 0 52 10 69 27v359zM191 721c0 66 59 124 125 124s125 -56 125 -124s-59 -124 -125 -124s-125 58 -125 124zM316 664c32 0 57 25 57 59
c0 32 -26 57 -57 57c-32 0 -57 -26 -57 -59c0 -32 24 -57 57 -57z" />
    <glyph glyph-name="uogonek" unicode="&#x173;" horiz-adv-x="633" 
d="M615 -88v-84c-19 -2 -39 -3 -56 -3c-85 0 -130 31 -130 102c0 20 10 54 28 73h-72v19c-35 -19 -70 -29 -106 -29c-175 0 -233 71 -233 257v298h199v-298c0 -61 15 -88 71 -88c28 0 52 10 69 27v359h199v-545c-13 -16 -20 -35 -20 -46c0 -35 30 -42 51 -42z" />
    <glyph glyph-name="utilde" unicode="&#x169;" horiz-adv-x="633" 
d="M385 545h199v-545h-199v19c-35 -19 -70 -29 -106 -29c-175 0 -233 71 -233 257v298h199v-298c0 -61 15 -88 71 -88c28 0 52 10 69 27v359zM190 578l-86 10c0 112 56 177 125 177c61 0 124 -38 156 -38c28 0 47 25 60 54l85 -10c0 -105 -56 -177 -126 -177
c-60 0 -125 38 -156 38c-27 0 -45 -23 -58 -54z" />
    <glyph glyph-name="umacron" unicode="&#x16b;" horiz-adv-x="633" 
d="M385 545h199v-545h-199v19c-35 -19 -70 -29 -106 -29c-175 0 -233 71 -233 257v298h199v-298c0 -61 15 -88 71 -88c28 0 52 10 69 27v359zM157 601v120h316v-120h-316z" />
    <glyph glyph-name="ubreve" unicode="&#x16d;" horiz-adv-x="633" 
d="M385 545h199v-545h-199v19c-35 -19 -70 -29 -106 -29c-175 0 -233 71 -233 257v298h199v-298c0 -61 15 -88 71 -88c28 0 52 10 69 27v359zM316 593c-114 0 -192 51 -201 159l116 10c13 -33 35 -56 85 -56s72 23 84 56l117 -10c-10 -108 -87 -159 -201 -159z" />
    <glyph glyph-name="uhungarumlaut" unicode="&#x171;" horiz-adv-x="633" 
d="M385 545h199v-545h-199v19c-35 -19 -70 -29 -106 -29c-175 0 -233 71 -233 257v298h199v-298c0 -61 15 -88 71 -88c28 0 52 10 69 27v359zM343 603l64 117l-122 -117h-129l99 185l159 -55l30 55l174 -59l-146 -126h-129z" />
    <glyph glyph-name="Wcircumflex" unicode="&#x174;" horiz-adv-x="1117" 
d="M1103 705l-284 -705h-80l-181 378l-181 -378h-79l-285 705h221l113 -326l172 326h79l170 -326l114 326h221zM346 746l148 167h120l148 -167h-127l-82 80l-82 -80h-125z" />
    <glyph glyph-name="wcircumflex" unicode="&#x175;" horiz-adv-x="862" 
d="M655 545h195l-199 -545h-96l-124 269l-125 -269h-94l-200 545h196l77 -234l99 234h93l100 -234zM221 586l148 167h120l148 -167h-127l-82 80l-82 -80h-125z" />
    <glyph glyph-name="Ycircumflex" unicode="&#x176;" horiz-adv-x="728" 
d="M499 705h233l-266 -468v-237h-205v237l-265 468h233l135 -256zM157 746l148 167h120l148 -167h-127l-82 80l-82 -80h-125z" />
    <glyph glyph-name="ycircumflex" unicode="&#x177;" horiz-adv-x="627" 
d="M415 545h203l-222 -574c-42 -110 -162 -163 -271 -163c-38 0 -68 2 -93 4l27 140h17c50 0 98 7 124 48l-191 545h208l91 -306h2zM105 595l148 167h120l148 -167h-127l-82 80l-82 -80h-125z" />
    <glyph glyph-name="Zacute" unicode="&#x179;" horiz-adv-x="701" 
d="M663 705v-88l-331 -450h331v-167h-624v84l334 454h-323v167h613zM629 916l-197 -170h-116l101 187z" />
    <glyph glyph-name="Zdotaccent" unicode="&#x17b;" horiz-adv-x="701" 
d="M663 705v-88l-331 -450h331v-167h-624v84l334 454h-323v167h613zM373 906c48 0 88 -39 88 -86c0 -48 -40 -87 -88 -87c-49 0 -89 39 -89 87c0 47 40 86 89 86z" />
    <glyph glyph-name="Zcaron" unicode="&#x17d;" horiz-adv-x="701" 
d="M663 705v-88l-331 -450h331v-167h-624v84l334 454h-323v167h613zM315 746l-148 167h125l82 -80l82 80h127l-148 -167h-120z" />
    <glyph glyph-name="zacute" unicode="&#x17a;" horiz-adv-x="561" 
d="M544 455l-233 -300h223v-155h-517v90l232 301h-209v154h504v-90zM537 765l-197 -170h-116l101 187z" />
    <glyph glyph-name="zdotaccent" unicode="&#x17c;" horiz-adv-x="561" 
d="M544 455l-233 -300h223v-155h-517v90l232 301h-209v154h504v-90zM280 755c48 0 88 -39 88 -86c0 -48 -40 -87 -88 -87c-49 0 -89 39 -89 87c0 47 40 86 89 86z" />
    <glyph glyph-name="zcaron" unicode="&#x17e;" horiz-adv-x="561" 
d="M544 455l-233 -300h223v-155h-517v90l232 301h-209v154h504v-90zM220 595l-148 167h125l82 -80l82 80h127l-148 -167h-120z" />
    <glyph glyph-name="Aringacute" unicode="&#x1fa;" horiz-adv-x="800" 
d="M581 0l-50 113h-263l-49 -113h-214l328 666c-35 23 -58 62 -58 104c0 58 45 110 101 121l68 126l212 -17l-167 -144c22 -23 36 -53 36 -86c0 -43 -24 -81 -58 -104l329 -666h-215zM400 713c32 0 57 25 57 59c0 32 -26 57 -57 57c-32 0 -57 -26 -57 -59
c0 -32 24 -57 57 -57zM400 414l-60 -139h120z" />
    <glyph glyph-name="aringacute" unicode="&#x1fb;" horiz-adv-x="672" 
d="M425 545h199v-545h-199v27c-41 -23 -84 -37 -127 -37c-178 0 -264 143 -264 283c0 142 86 283 264 283c41 0 84 -12 127 -32v21zM212 721c0 58 46 111 103 122l68 125l212 -17l-168 -145c21 -23 35 -53 35 -85c0 -68 -59 -124 -125 -124s-125 58 -125 124zM425 191v163
c-25 20 -57 32 -90 32c-76 0 -111 -57 -111 -113s36 -114 111 -114c33 0 65 12 90 32zM337 664c32 0 57 25 57 59c0 32 -26 57 -57 57c-32 0 -57 -26 -57 -59c0 -32 24 -57 57 -57z" />
    <glyph glyph-name="AEacute" unicode="&#x1fc;" horiz-adv-x="1067" 
d="M657 167h374v-167h-573v113h-203l-47 -113h-215l343 705h674v-167h-353v-115h291v-162h-291v-94zM432 521l-104 -246h130v246h-26zM726 916l-197 -170h-116l101 187z" />
    <glyph glyph-name="aeacute" unicode="&#x1fd;" horiz-adv-x="1081" 
d="M1053 219h-348c16 -47 53 -83 115 -83c41 0 71 26 98 67l120 -97c-50 -71 -140 -116 -250 -116c-60 0 -114 16 -157 45v-35h-199v27c-41 -23 -84 -37 -128 -37c-149 0 -270 108 -270 282c0 178 121 283 270 283c42 0 86 -11 128 -31v21h199v-31l-6 -8
c45 31 100 49 163 49c163 0 266 -118 266 -283c0 -18 -1 -53 -1 -53zM432 191v163c-25 20 -58 35 -90 35c-68 0 -118 -50 -118 -117c0 -72 50 -116 118 -116c32 0 65 15 90 35zM705 329h162c0 31 -28 77 -79 77c-39 0 -75 -35 -83 -77zM801 775l-197 -170h-116l101 187z" />
    <glyph glyph-name="Oslashacute" unicode="&#x1fe;" horiz-adv-x="829" 
d="M670 916l-197 -170h-116l101 187zM30 0l98 113c-57 64 -92 148 -92 239c0 200 169 362 377 362c69 0 134 -18 190 -49l34 40h166l-103 -118c56 -63 90 -146 90 -235c0 -200 -168 -362 -377 -362c-68 0 -131 16 -186 46l-31 -36h-166zM245 352c0 -31 6 -59 16 -85l214 252
c-19 8 -40 13 -62 13c-92 0 -168 -81 -168 -180zM413 172c94 0 169 80 169 180c0 28 -6 56 -15 81l-212 -251c17 -7 37 -10 58 -10z" />
    <glyph glyph-name="oslashacute" unicode="&#x1ff;" horiz-adv-x="653" 
d="M583 775l-197 -170h-116l101 187zM14 0l81 91c-43 49 -68 112 -68 181c0 157 134 283 299 283c55 0 108 -14 153 -39l26 30h140l-87 -95c42 -49 67 -111 67 -179c0 -156 -134 -282 -299 -282c-54 0 -105 13 -148 37l-24 -27h-140zM326 159c58 0 105 51 105 113
c0 12 -1 24 -3 35l-128 -145c9 -3 17 -3 26 -3zM221 272c0 -21 5 -37 5 -37l130 146c-9 4 -20 5 -30 5c-58 0 -105 -51 -105 -114z" />
    <glyph glyph-name="Scommaaccent" unicode="&#x218;" horiz-adv-x="653" 
d="M361 441c163 -35 262 -87 262 -221c0 -144 -114 -230 -285 -230c-126 0 -197 12 -309 68l74 150c86 -41 163 -51 242 -51c47 0 72 15 72 45c0 24 -19 42 -112 63c-149 34 -264 74 -264 223c0 132 103 227 273 227c122 0 210 -30 284 -58l-82 -155c-64 24 -145 46 -208 46
c-42 0 -61 -19 -61 -43c0 -28 20 -43 114 -64zM318 -39c57 0 101 -38 101 -115c0 -79 -23 -202 -189 -202l-26 75c68 0 87 19 94 44c-46 9 -81 49 -81 98c0 55 45 100 101 100z" />
    <glyph glyph-name="scommaaccent" unicode="&#x219;" horiz-adv-x="513" 
d="M23 43l73 139c73 -31 112 -44 174 -44c24 0 37 9 37 21c0 13 -2 19 -74 36c-116 26 -201 66 -201 183c0 105 80 177 213 177c96 0 165 -23 222 -45l-67 -138c-49 18 -111 34 -159 34c-31 0 -33 -6 -33 -18c0 -15 15 -24 87 -40c126 -28 191 -73 191 -178
c0 -115 -91 -180 -222 -180c-98 0 -151 8 -241 53zM261 -39c57 0 101 -38 101 -115c0 -79 -23 -202 -189 -202l-26 75c68 0 87 19 94 44c-46 9 -81 49 -81 98c0 55 45 100 101 100z" />
    <glyph glyph-name="uni021A" unicode="&#x21a;" horiz-adv-x="660" 
d="M640 705v-167h-206v-538h-205v538h-207v167h618zM329 -39c57 0 101 -38 101 -115c0 -79 -23 -202 -189 -202l-26 75c68 0 87 19 94 44c-46 9 -81 49 -81 98c0 55 45 100 101 100z" />
    <glyph glyph-name="uni021B" unicode="&#x21b;" horiz-adv-x="434" 
d="M402 391h-118v-137c0 -83 0 -103 67 -103c13 0 29 0 49 1v-139c1 1 -46 -23 -143 -23c-96 0 -172 59 -172 179v222h-65v154h65v209h199v-209h118v-154zM247 -39c57 0 101 -38 101 -115c0 -79 -23 -202 -189 -202l-26 75c68 0 87 19 94 44c-46 9 -81 49 -81 98
c0 55 45 100 101 100z" />
    <glyph glyph-name="dotlessj" unicode="&#x237;" horiz-adv-x="308" 
d="M53 77v468h199v-557c0 -119 -78 -179 -173 -179c-45 0 -80 5 -103 11v150c77 0 77 17 77 107z" />
    <glyph glyph-name="Wgrave" unicode="&#x1e80;" horiz-adv-x="1117" 
d="M1103 705l-284 -705h-80l-181 378l-181 -378h-79l-285 705h221l113 -326l172 326h79l170 -326l114 326h221zM498 746l-197 170l212 17l101 -187h-116z" />
    <glyph glyph-name="Wdieresis" unicode="&#x1e84;" horiz-adv-x="1117" 
d="M1103 705l-284 -705h-80l-181 378l-181 -378h-79l-285 705h221l113 -326l172 326h79l170 -326l114 326h221zM664 906c48 0 88 -39 88 -86c0 -48 -40 -87 -88 -87c-49 0 -89 39 -89 87c0 47 40 86 89 86zM444 906c48 0 88 -39 88 -86c0 -48 -40 -87 -88 -87
c-49 0 -89 39 -89 87c0 47 40 86 89 86z" />
    <glyph glyph-name="Wacute" unicode="&#x1e82;" horiz-adv-x="1117" 
d="M1103 705l-284 -705h-80l-181 378l-181 -378h-79l-285 705h221l113 -326l172 326h79l170 -326l114 326h221zM809 916l-197 -170h-116l101 187z" />
    <glyph glyph-name="wgrave" unicode="&#x1e81;" horiz-adv-x="862" 
d="M655 545h195l-199 -545h-96l-124 269l-125 -269h-94l-200 545h196l77 -234l99 234h93l100 -234zM373 586l-197 170l212 17l101 -187h-116z" />
    <glyph glyph-name="wdieresis" unicode="&#x1e85;" horiz-adv-x="862" 
d="M655 545h195l-199 -545h-96l-124 269l-125 -269h-94l-200 545h196l77 -234l99 234h93l100 -234zM539 746c48 0 88 -39 88 -86c0 -48 -40 -87 -88 -87c-49 0 -89 39 -89 87c0 47 40 86 89 86zM319 746c48 0 88 -39 88 -86c0 -48 -40 -87 -88 -87c-49 0 -89 39 -89 87
c0 47 40 86 89 86z" />
    <glyph glyph-name="wacute" unicode="&#x1e83;" horiz-adv-x="862" 
d="M655 545h195l-199 -545h-96l-124 269l-125 -269h-94l-200 545h196l77 -234l99 234h93l100 -234zM684 756l-197 -170h-116l101 187z" />
    <glyph glyph-name="Ygrave" unicode="&#x1ef2;" horiz-adv-x="728" 
d="M499 705h233l-266 -468v-237h-205v237l-265 468h233l135 -256zM310 746l-197 170l212 17l101 -187h-116z" />
    <glyph glyph-name="ygrave" unicode="&#x1ef3;" horiz-adv-x="627" 
d="M415 545h203l-222 -574c-42 -110 -162 -163 -271 -163c-38 0 -68 2 -93 4l27 140h17c50 0 98 7 124 48l-191 545h208l91 -306h2zM256 595l-197 170l212 17l101 -187h-116z" />
    </font>
</defs>
</svg>
