<?xml version="1.0" standalone="no"?>
<!DOCTYPE svg PUBLIC "-//W3C//DTD SVG 1.1//EN" "http://www.w3.org/Graphics/SVG/1.1/DTD/svg11.dtd" >
<svg xmlns="http://www.w3.org/2000/svg" xmlns:xlink="http://www.w3.org/1999/xlink" version="1.1">
<metadata>
Created by FontForge 20201107 at Thu Mar 27 10:24:30 2014
 By Jimmy Wärting
Copyright (c) 2014 by Intelligent Design - Kostas Bartsokas. All rights reserved.
</metadata>
<defs>
<font id="ZonaPro-Bold" horiz-adv-x="840" >
  <font-face 
    font-family="Zona Pro"
    font-weight="700"
    font-stretch="normal"
    units-per-em="1000"
    panose-1="2 1 8 3 4 0 2 2 0 4"
    ascent="825"
    descent="-175"
    x-height="543"
    cap-height="705"
    bbox="-288 -314 1249 1006"
    underline-thickness="20"
    underline-position="-133"
    stemh="54"
    stemv="55"
    unicode-range="U+0020-FB04"
  />
<missing-glyph horiz-adv-x="500" 
 />
    <glyph glyph-name="f_i" unicode="fi" horiz-adv-x="645" 
d="M508 602c-44 0 -80 36 -80 81s36 82 80 82s79 -37 79 -82s-35 -81 -79 -81zM387 747v-104c-16 2 -34 5 -57 5c-81 0 -93 -39 -93 -91v-14h341v-543h-139v428h-202v-446c0 -113 -73 -171 -163 -171c-35 0 -62 4 -82 8v112c5 0 11 -1 18 -1c71 0 88 30 88 122v376h-76v115
h76v41c0 143 92 177 187 177c56 0 91 -11 102 -14z" />
    <glyph glyph-name="f_l" unicode="fl" horiz-adv-x="655" 
d="M344 761c127 0 245 -58 245 -199v-562h-140v521c0 107 -42 126 -105 126c-71 0 -107 -24 -107 -104h146v-115h-146v-446c0 -128 -83 -171 -181 -171c-24 0 -48 4 -64 8v111c86 0 106 18 106 121v377h-76v115h76c0 126 65 218 246 218z" />
    <glyph glyph-name="f_f" unicode="ff" horiz-adv-x="782" 
d="M774 742v-104c-16 2 -34 5 -57 5c-78 0 -93 -28 -93 -82v-18h147v-115h-147v-428c0 -121 -78 -171 -173 -171c-26 0 -55 3 -72 8v111c86 0 106 18 106 121v359h-248v-446c0 -126 -81 -171 -178 -171c-26 0 -51 3 -67 8v111c86 0 106 18 106 121v377h-76v115h76v22
c0 126 77 172 169 172c70 0 113 -17 120 -19v-104c-29 4 -54 6 -81 6c-56 0 -69 -19 -69 -65v-12h248v42c0 133 78 176 169 176c71 0 113 -17 120 -19z" />
    <glyph glyph-name="f_f_i" unicode="ffi" horiz-adv-x="1047" 
d="M911 602c-44 0 -80 36 -80 81s36 82 80 82c43 0 79 -37 79 -82s-36 -81 -79 -81zM841 0v428h-217v-427c0 -114 -73 -172 -163 -172c-35 0 -62 4 -82 9v111c5 0 11 -1 18 -1c71 0 88 30 88 122v358h-248v-446c0 -113 -73 -171 -163 -171c-35 0 -62 4 -82 8v112
c5 0 11 -1 18 -1c71 0 88 30 88 122v376h-76v115h76v21c0 129 80 173 174 173c66 0 108 -17 115 -19v-104c-29 4 -54 6 -81 6c-56 0 -69 -20 -69 -66v-11h248v40c0 136 80 178 174 178c66 0 108 -17 115 -19v-104c-16 2 -34 5 -57 5c-82 0 -93 -33 -93 -86v-14h357v-543
h-140z" />
    <glyph glyph-name="f_f_l" unicode="ffl" horiz-adv-x="1042" 
d="M731 761c116 0 245 -50 245 -199v-562h-140v521c0 97 -42 126 -105 126c-56 0 -107 -17 -107 -83v-21h146v-115h-146v-428c0 -114 -73 -172 -163 -172c-35 0 -62 4 -82 9v111c86 0 106 18 106 121v359h-248v-446c0 -114 -73 -172 -163 -172c-35 0 -62 4 -82 9v111
c86 0 106 18 106 121v377h-76v115h76v24c0 114 74 172 164 172c78 0 119 -19 125 -21v-104c-29 4 -54 6 -81 6c-49 0 -69 -18 -69 -60v-17h248v24c0 112 82 194 246 194z" />
    <glyph glyph-name="f_igrave" unicode="f&#xec;" horiz-adv-x="645" 
d="M473 589l-102 88c-114 0 -134 -60 -134 -112v-22h341v-543h-139v428h-202v-446c0 -113 -73 -171 -163 -171c-35 0 -62 4 -82 8v112c5 0 11 -1 18 -1c71 0 88 30 88 122v376h-76v115h76v48c0 100 80 170 161 170h178l124 -172h-88z" />
    <glyph glyph-name=".notdef" horiz-adv-x="500" 
 />
    <glyph glyph-name="NULL" horiz-adv-x="0" 
 />
    <glyph glyph-name="CR" horiz-adv-x="277" 
 />
    <glyph glyph-name="space" unicode=" " horiz-adv-x="322" 
 />
    <glyph glyph-name="dotlessi" unicode="&#x131;" horiz-adv-x="272" 
d="M66 0v543h139v-543h-139z" />
    <glyph glyph-name="fraction" unicode="&#x2044;" horiz-adv-x="481" 
d="M448 701h102l-483 -701h-102z" />
    <glyph glyph-name="Lslash" unicode="&#x141;" horiz-adv-x="608" 
d="M-9 239v136l82 24v306h143v-263l201 59v-136l-201 -58v-187h363v-120h-506v263z" />
    <glyph glyph-name="lslash" unicode="&#x142;" horiz-adv-x="353" 
d="M-7 239v135l95 28v352h144v-309l105 32v-136l-105 -32v-309h-144v266z" />
    <glyph glyph-name="exclam" unicode="!" horiz-adv-x="279" 
d="M188 236h-97l-23 468h144zM140 154c44 0 79 -36 79 -81s-35 -81 -79 -81s-79 36 -79 81s35 81 79 81z" />
    <glyph glyph-name="quotedbl" unicode="&#x22;" horiz-adv-x="448" 
d="M251 373l20 327h151l-97 -327h-74zM35 373l19 327h152l-98 -327h-73z" />
    <glyph glyph-name="numbersign" unicode="#" horiz-adv-x="694" 
d="M448 549l25 149h103l-25 -149h113v-119h-132l-26 -147h126v-120h-145l-28 -166h-103l28 166h-143l-28 -166h-103l29 166h-109v120h128l25 147h-121v119h141l25 149h102l-25 -149h143zM404 283l25 147h-143l-25 -147h143z" />
    <glyph glyph-name="dollar" unicode="$" horiz-adv-x="654" 
d="M367 585v-169c148 -34 248 -82 248 -209c0 -128 -99 -207 -248 -215v-63h-63v63c-97 2 -156 16 -256 66l53 111c77 -37 132 -50 203 -53v176c-138 33 -246 75 -246 209c0 119 93 206 246 212v40h63v-42c86 -6 162 -29 222 -55l-59 -113c-46 19 -108 35 -163 42zM203 513
c0 -42 37 -61 101 -80v155c-65 -2 -101 -34 -101 -75zM470 193c0 43 -39 63 -103 81v-158c64 4 103 32 103 77z" />
    <glyph glyph-name="percent" unicode="%" horiz-adv-x="899" 
d="M397 516c0 -124 -80 -197 -179 -197s-179 73 -179 197c0 125 80 197 179 197s179 -72 179 -197zM131 516c0 -62 39 -105 87 -105s87 43 87 105c0 63 -39 106 -87 106s-87 -43 -87 -106zM681 385c99 0 179 -72 179 -197c0 -124 -80 -196 -179 -196s-179 72 -179 196
c0 125 80 197 179 197zM681 83c48 0 87 43 87 105c0 63 -39 106 -87 106s-87 -43 -87 -106c0 -62 39 -105 87 -105zM639 701h102l-483 -701h-102z" />
    <glyph glyph-name="ampersand" unicode="&#x26;" horiz-adv-x="691" 
d="M569 345l100 -32s-47 -86 -107 -161l85 -83l-84 -77l-78 77c-52 -44 -120 -77 -187 -77c-162 0 -266 76 -266 205c0 79 52 147 148 189c-39 39 -62 82 -62 136c0 125 88 191 198 191c120 0 201 -77 201 -176c0 -77 -53 -154 -152 -193l121 -115c34 36 65 88 83 116z
M316 612c-48 0 -82 -44 -82 -94c0 -52 43 -83 62 -101c45 14 105 46 105 102c0 48 -28 93 -85 93zM304 104c41 0 78 17 108 43l-157 154c-57 -23 -84 -58 -84 -99c0 -52 48 -98 133 -98z" />
    <glyph glyph-name="quotesingle" unicode="'" horiz-adv-x="248" 
d="M42 373l20 327h154l-98 -327h-76z" />
    <glyph glyph-name="parenleft" unicode="(" horiz-adv-x="424" 
d="M183 299c0 -150 78 -267 204 -345l-46 -79c-176 90 -289 234 -289 424c0 188 113 333 289 423l46 -78c-126 -79 -204 -196 -204 -345z" />
    <glyph glyph-name="parenright" unicode=")" horiz-adv-x="424" 
d="M242 299c0 149 -78 266 -204 345l46 78c176 -90 289 -235 289 -423c0 -190 -113 -334 -289 -424l-46 79c126 78 204 195 204 345z" />
    <glyph glyph-name="asterisk" unicode="*" horiz-adv-x="419" 
d="M382 465l-34 -61l-108 68l6 -127h-69l6 127l-109 -68l-34 61l113 58l-113 59l34 61l109 -68l-6 127h69l-6 -127l108 68l34 -61l-113 -58z" />
    <glyph glyph-name="plus" unicode="+" horiz-adv-x="640" 
d="M574 431v-119h-195v-194h-116v194h-195v119h195v194h116v-194h195z" />
    <glyph glyph-name="comma" unicode="," horiz-adv-x="240" 
d="M120 154c18 0 79 -6 79 -100c0 -155 -106 -186 -166 -186l-20 60c25 2 87 18 93 65c-36 6 -65 38 -65 82c0 46 39 79 79 79z" />
    <glyph glyph-name="hyphen" unicode="-" horiz-adv-x="408" 
d="M365 392v-119h-322v119h322z" />
    <glyph glyph-name="period" unicode="." horiz-adv-x="237" 
d="M198 73c0 -46 -36 -82 -80 -82s-79 36 -79 82c0 45 35 81 79 81s80 -36 80 -81z" />
    <glyph glyph-name="slash" unicode="/" horiz-adv-x="500" 
d="M-34 -128l443 926h115l-443 -926h-115z" />
    <glyph glyph-name="zero" unicode="0" horiz-adv-x="730" 
d="M366 712c178 0 322 -132 322 -360s-144 -360 -322 -360c-177 0 -322 132 -322 360s145 360 322 360zM366 578c-98 0 -178 -94 -178 -226c0 -133 80 -226 178 -226c99 0 178 93 178 226c0 132 -79 226 -178 226z" />
    <glyph glyph-name="one" unicode="1" horiz-adv-x="408" 
d="M253 705h68v-705h-144v565l-130 -29l-28 117z" />
    <glyph glyph-name="two" unicode="2" horiz-adv-x="624" 
d="M297 124h285v-124h-542v53c164 206 406 206 406 387c0 79 -63 141 -140 141c-61 0 -136 -44 -137 -140v-7h-129v16c0 152 125 263 269 263c143 0 273 -114 273 -264c0 -223 -237 -291 -285 -325z" />
    <glyph glyph-name="three" unicode="3" horiz-adv-x="618" 
d="M566 639l-177 -224c114 -24 193 -86 193 -198c0 -142 -112 -226 -281 -226c-107 0 -171 9 -259 49l52 112c72 -29 135 -37 212 -37c82 0 136 44 136 100c0 39 -26 110 -158 110h-55l-25 62l157 194h-292v124h497v-66z" />
    <glyph glyph-name="four" unicode="4" horiz-adv-x="675" 
d="M548 273h98v-120h-98v-153h-139v153h-365l-26 64l420 488h110v-432zM222 273h187v217z" />
    <glyph glyph-name="five" unicode="5" horiz-adv-x="625" 
d="M353 456c147 0 233 -100 233 -239c0 -142 -113 -226 -281 -226c-107 0 -173 8 -260 47l51 113c72 -29 137 -36 214 -36c79 0 136 47 136 113c0 50 -31 117 -135 117c-64 0 -158 -16 -175 -22l-58 34l7 347h469v-123h-348l-2 -144c36 10 91 19 149 19z" />
    <glyph glyph-name="six" unicode="6" horiz-adv-x="663" 
d="M369 457c114 0 249 -65 249 -227c0 -150 -128 -238 -287 -238c-156 0 -282 132 -282 317c0 296 131 404 296 404c107 0 177 -30 242 -74l-62 -105c-44 32 -101 55 -171 55c-110 0 -165 -102 -165 -199c29 38 100 67 180 67zM334 351c-76 0 -143 -46 -143 -118
c0 -64 64 -120 140 -120c83 0 148 47 148 119c0 74 -65 119 -145 119z" />
    <glyph glyph-name="seven" unicode="7" horiz-adv-x="600" 
d="M47 705h523v-67l-325 -638h-155l298 581h-341v124z" />
    <glyph glyph-name="eight" unicode="8" horiz-adv-x="632" 
d="M317 713c134 0 244 -59 244 -193c0 -60 -35 -112 -86 -140c74 -35 125 -97 125 -174c0 -144 -127 -214 -283 -214s-283 70 -283 214c0 77 50 139 124 174c-50 27 -85 80 -85 140c0 134 110 193 244 193zM317 602c-65 0 -119 -27 -119 -86c0 -57 51 -87 119 -87
s118 30 118 87c0 59 -53 86 -118 86zM317 111c80 0 145 34 145 99c0 64 -62 102 -145 102s-145 -38 -145 -102c0 -65 65 -99 145 -99z" />
    <glyph glyph-name="nine" unicode="9" horiz-adv-x="662" 
d="M331 354c74 0 140 46 140 118c0 68 -68 120 -140 120c-80 0 -145 -44 -145 -119c0 -74 66 -119 145 -119zM286 248c-108 0 -239 65 -239 226c0 154 127 239 284 239c156 0 282 -125 282 -317c0 -296 -127 -404 -296 -404c-107 0 -177 30 -242 74l63 105
c44 -32 100 -55 170 -55c111 0 166 80 170 199c-34 -46 -115 -67 -192 -67z" />
    <glyph glyph-name="colon" unicode=":" horiz-adv-x="260" 
d="M128 381c-44 0 -79 36 -79 81s35 81 79 81s80 -36 80 -81s-36 -81 -80 -81zM128 154c44 0 80 -36 80 -81c0 -46 -36 -82 -80 -82s-79 36 -79 82c0 45 35 81 79 81z" />
    <glyph glyph-name="semicolon" unicode=";" horiz-adv-x="259" 
d="M128 381c-44 0 -79 36 -79 81s35 81 79 81s80 -36 80 -81s-36 -81 -80 -81zM128 154c46 0 80 -33 80 -96c0 -90 -36 -189 -166 -190l-20 60c54 2 87 29 92 65c-37 7 -65 39 -65 80c0 45 36 81 79 81z" />
    <glyph glyph-name="less" unicode="&#x3c;" horiz-adv-x="632" 
d="M553 625v-135l-304 -140l304 -138v-136l-491 241v67z" />
    <glyph glyph-name="equal" unicode="=" horiz-adv-x="633" 
d="M73 156v120h485v-120h-485zM73 562h485v-120h-485v120z" />
    <glyph glyph-name="greater" unicode="&#x3e;" horiz-adv-x="632" 
d="M82 76v136l304 138l-304 140v135l491 -241v-67z" />
    <glyph glyph-name="question" unicode="?" horiz-adv-x="540" 
d="M252 713c152 0 257 -83 257 -222c0 -107 -75 -196 -225 -196l-5 -81h-99l-8 136l13 33h48c86 0 150 36 150 103c0 66 -58 104 -127 104c-74 0 -133 -11 -195 -39l-47 111c82 42 140 51 238 51zM229 154c44 0 79 -36 79 -81c0 -46 -35 -82 -79 -82s-79 36 -79 82
c0 45 35 81 79 81z" />
    <glyph glyph-name="at" unicode="@" horiz-adv-x="965" 
d="M486 724c242 0 439 -195 439 -437c0 -132 -95 -236 -219 -236c-78 0 -122 38 -131 96c-38 -54 -96 -88 -160 -88c-122 0 -195 99 -195 207c0 133 97 268 228 268c70 0 121 -40 147 -94l11 74l113 -18s-28 -177 -38 -268c-1 -5 -4 -33 -4 -38c0 -41 18 -78 61 -78
c93 0 134 99 134 174c0 211 -173 384 -386 384s-386 -173 -386 -385c0 -213 173 -385 386 -385c96 0 183 35 250 91c33 -34 35 -38 37 -39c-77 -67 -177 -107 -287 -107c-243 0 -440 197 -440 440c0 242 197 439 440 439zM559 312c0 57 -41 101 -96 101
c-61 0 -119 -55 -119 -130c0 -58 40 -104 95 -104c62 0 120 57 120 133z" />
    <glyph glyph-name="A" unicode="A" horiz-adv-x="768" 
d="M605 0l-64 143h-315l-63 -143h-151l336 705h71l337 -705h-151zM383 495l-106 -233h213z" />
    <glyph glyph-name="B" unicode="B" horiz-adv-x="708" 
d="M536 549c0 -40 -19 -84 -52 -104c112 -15 190 -111 190 -222c0 -117 -74 -223 -213 -223h-388v705h310c84 0 153 -69 153 -156zM212 581v-122h129c48 0 67 32 67 61c0 34 -28 61 -78 61h-118zM213 124h170c99 0 140 48 140 114c0 57 -42 115 -139 115h-171v-229z" />
    <glyph glyph-name="C" unicode="C" horiz-adv-x="742" 
d="M417 127c74 0 140 36 180 93l111 -94c-69 -82 -173 -134 -291 -134c-205 0 -372 161 -372 360s167 361 372 361c118 0 222 -53 291 -135l-111 -94c-40 57 -106 93 -180 93c-123 0 -224 -90 -224 -225c0 -133 101 -225 224 -225z" />
    <glyph glyph-name="D" unicode="D" horiz-adv-x="752" 
d="M707 352c0 -187 -147 -352 -332 -352h-302v705h279c196 0 355 -158 355 -353zM212 131h151c112 0 203 103 203 221c0 122 -96 222 -214 222h-140v-443z" />
    <glyph glyph-name="E" unicode="E" horiz-adv-x="656" 
d="M212 124h402v-124h-541v705h520v-124h-381v-179h319v-120h-319v-158z" />
    <glyph glyph-name="F" unicode="F" horiz-adv-x="638" 
d="M604 581h-392v-251h337v-124h-337v-206h-139v705h531v-124z" />
    <glyph glyph-name="G" unicode="G" horiz-adv-x="779" 
d="M404 353h322v-258c-78 -63 -186 -103 -307 -103c-206 0 -374 161 -374 360s168 360 374 360c118 0 214 -39 282 -101l-90 -100c-47 42 -115 67 -192 67c-126 0 -228 -102 -228 -226c0 -131 102 -233 228 -233c63 0 119 18 164 48v66h-179v120z" />
    <glyph glyph-name="H" unicode="H" horiz-adv-x="750" 
d="M537 705h140v-705h-140v239h-325v-239h-139v705h139v-343h325v343z" />
    <glyph glyph-name="I" unicode="I" horiz-adv-x="295" 
d="M220 705v-705h-144v705h144z" />
    <glyph glyph-name="J" unicode="J" horiz-adv-x="578" 
d="M371 705h144v-417c0 -175 -81 -296 -253 -296c-129 0 -235 98 -248 223l123 12c13 -59 57 -101 121 -101c70 0 113 53 113 121v458z" />
    <glyph glyph-name="K" unicode="K" horiz-adv-x="715" 
d="M386 357l317 -357h-188l-222 246l-81 -86v-160h-139v705h139v-339l309 339h173z" />
    <glyph glyph-name="L" unicode="L" horiz-adv-x="608" 
d="M216 120h363v-120h-506v705h143v-585z" />
    <glyph glyph-name="M" unicode="M" horiz-adv-x="870" 
d="M727 705h70v-705h-144v390l-218 -306l-219 306v-390h-143v705h70l292 -404z" />
    <glyph glyph-name="N" unicode="N" horiz-adv-x="780" 
d="M563 705h144v-705h-70l-421 444v-444h-143v705h70l420 -444v444z" />
    <glyph glyph-name="O" unicode="O" 
d="M419 712c208 0 375 -161 375 -360s-167 -360 -375 -360c-207 0 -375 161 -375 360s168 360 375 360zM419 126c126 0 229 101 229 226c0 124 -103 226 -229 226s-228 -102 -228 -226c0 -125 102 -226 228 -226z" />
    <glyph glyph-name="P" unicode="P" horiz-adv-x="667" 
d="M73 705h290c206 0 276 -122 276 -254c0 -193 -125 -270 -304 -270h-119v-181h-143v705zM216 300h105c114 0 168 57 168 140c0 73 -38 141 -149 141h-124v-281z" />
    <glyph glyph-name="R" unicode="R" horiz-adv-x="703" 
d="M510 0l-136 182c-8 -1 -18 -1 -27 -1h-131v-181h-143v705h311c206 0 276 -122 276 -254c0 -121 -50 -201 -143 -241l164 -210h-171zM216 581v-282h126c114 0 168 58 168 141c0 73 -38 141 -149 141h-145z" />
    <glyph glyph-name="S" unicode="S" horiz-adv-x="646" 
d="M350 418c152 -34 256 -82 256 -211c0 -136 -109 -216 -273 -216c-120 0 -181 11 -293 67l52 111c93 -45 158 -54 246 -54c77 0 123 28 123 80c0 48 -47 69 -150 93c-145 33 -262 74 -262 213c0 124 99 212 260 212c107 0 201 -27 270 -57l-58 -114
c-62 26 -149 47 -215 47c-72 0 -112 -32 -112 -76c0 -50 50 -71 156 -95z" />
    <glyph glyph-name="T" unicode="T" horiz-adv-x="660" 
d="M628 705v-124h-225v-581h-144v581h-224v124h593z" />
    <glyph glyph-name="U" unicode="U" horiz-adv-x="757" 
d="M691 705v-422c0 -162 -108 -291 -313 -291c-204 0 -311 128 -311 291v422h140v-385c0 -133 59 -196 171 -196c114 0 173 64 173 196v385h140z" />
    <glyph glyph-name="V" unicode="V" horiz-adv-x="760" 
d="M381 245l206 460h156l-329 -705h-66l-328 705h155z" />
    <glyph glyph-name="W" unicode="W" horiz-adv-x="1117" 
d="M1092 705l-277 -705h-59l-200 463l-199 -463h-59l-278 705h155l159 -428l193 428h59l192 -428l159 428h155z" />
    <glyph glyph-name="X" unicode="X" horiz-adv-x="721" 
d="M362 465l174 240h159l-240 -349l247 -356h-163l-177 246l-177 -246h-163l248 356l-241 349h160z" />
    <glyph glyph-name="Y" unicode="Y" horiz-adv-x="699" 
d="M528 705h164l-271 -466v-239h-144v239l-270 466h163l180 -311z" />
    <glyph glyph-name="Z" unicode="Z" horiz-adv-x="682" 
d="M638 705v-65l-389 -516h391v-124h-597v62l390 519h-372v124h577z" />
    <glyph glyph-name="bracketleft" unicode="[" horiz-adv-x="402" 
d="M365 597h-174v-619h174v-105h-289v828h289v-104z" />
    <glyph glyph-name="backslash" unicode="\" horiz-adv-x="496" 
d="M419 -128l-443 926h116l443 -926h-116z" />
    <glyph glyph-name="bracketright" unicode="]" horiz-adv-x="407" 
d="M42 -22h173v619h-173v104h289v-828h-289v105z" />
    <glyph glyph-name="asciicircum" unicode="^" horiz-adv-x="478" 
d="M138 490h-99l168 215h63l169 -215h-100l-100 130z" />
    <glyph glyph-name="underscore" unicode="_" horiz-adv-x="593" 
d="M595 -30v-83h-598v83h598z" />
    <glyph glyph-name="grave" unicode="`" horiz-adv-x="480" 
d="M296 750l-185 164l151 13l120 -177h-86z" />
    <glyph glyph-name="a" unicode="a" horiz-adv-x="670" 
d="M469 543h139v-543h-139v40c-45 -30 -99 -48 -159 -48c-170 0 -270 137 -270 281c0 145 100 281 270 281c57 0 113 -18 159 -45v34zM469 163v218c-34 29 -82 47 -134 47c-99 0 -161 -74 -161 -155c0 -82 63 -156 161 -156c53 0 100 17 134 46z" />
    <glyph glyph-name="b" unicode="b" horiz-adv-x="673" 
d="M360 553c152 0 275 -111 275 -281c0 -167 -123 -281 -275 -281c-57 0 -113 16 -158 43v-34h-139v754h139v-242c46 25 100 41 158 41zM335 117c94 0 163 63 163 155c0 89 -69 156 -163 156c-53 0 -99 -18 -133 -46v-218c34 -29 81 -47 133 -47z" />
    <glyph glyph-name="c" unicode="c" horiz-adv-x="576" 
d="M455 184l88 -83c-49 -67 -126 -109 -210 -109c-164 0 -297 125 -297 280c0 156 133 281 297 281c87 0 163 -42 212 -108l-90 -83c-27 40 -72 66 -122 66c-88 0 -160 -70 -160 -156c0 -85 72 -155 160 -155c50 0 95 26 122 67z" />
    <glyph glyph-name="d" unicode="d" horiz-adv-x="673" 
d="M471 754h140v-754h-140v33c-44 -26 -101 -42 -158 -42c-151 0 -275 114 -275 281c0 170 124 281 275 281c58 0 113 -16 158 -41v242zM338 117c52 0 100 18 133 47v218c-33 28 -80 46 -133 46c-93 0 -162 -67 -162 -156c0 -92 69 -155 162 -155z" />
    <glyph glyph-name="e" unicode="e" horiz-adv-x="615" 
d="M578 232h-402c15 -71 72 -121 155 -121c57 0 110 26 140 67l89 -74c-50 -68 -139 -112 -245 -112c-164 0 -278 125 -278 280c0 156 114 281 278 281c167 0 264 -121 264 -290c0 -11 -1 -22 -1 -31zM315 442c-73 0 -125 -54 -138 -121h269c-5 62 -38 121 -131 121z" />
    <glyph glyph-name="f" unicode="f" horiz-adv-x="393" 
d="M387 742v-104c-16 2 -34 5 -57 5c-82 0 -93 -35 -93 -92v-8h146v-115h-146v-446c0 -108 -65 -171 -171 -171c-31 0 -56 4 -74 8v111c86 0 106 16 106 121v377h-76v115h76v35c0 136 77 183 169 183c70 0 113 -17 120 -19z" />
    <glyph glyph-name="g" unicode="g" horiz-adv-x="673" 
d="M471 543h139v-439c0 -140 -78 -293 -284 -293c-134 0 -160 12 -244 36l27 103c59 -16 109 -32 184 -32c83 0 168 50 172 135c-44 -24 -96 -38 -152 -38c-152 0 -275 109 -275 270c0 162 123 268 275 268c57 0 113 -15 158 -41v31zM175 284c0 -86 69 -144 162 -144
c53 0 101 16 134 44v200c-34 28 -81 44 -134 44c-93 0 -162 -62 -162 -144z" />
    <glyph glyph-name="h" unicode="h" horiz-adv-x="635" 
d="M347 553c159 0 232 -74 232 -250v-303h-139v303c0 84 -41 125 -118 125c-49 0 -89 -15 -120 -41v-387h-139v754h139v-239c40 25 90 38 145 38z" />
    <glyph glyph-name="i" unicode="i" horiz-adv-x="272" 
d="M66 0v543h139v-543h-139zM135 602c-44 0 -80 36 -80 81s36 82 80 82s79 -37 79 -82s-35 -81 -79 -81z" />
    <glyph glyph-name="j" unicode="j" horiz-adv-x="273" 
d="M65 52v491h140v-561c0 -113 -74 -171 -164 -171c-35 0 -62 4 -82 8v112c6 0 12 -1 18 -1c72 0 88 30 88 122zM135 602c-44 0 -80 36 -80 81s36 82 80 82c43 0 79 -37 79 -82s-36 -81 -79 -81z" />
    <glyph glyph-name="k" unicode="k" horiz-adv-x="606" 
d="M399 331l201 -331h-154l-139 222l-105 -101v-121h-139v754h139v-444l232 233h163z" />
    <glyph glyph-name="l" unicode="l" horiz-adv-x="271" 
d="M65 0v754h140v-754h-140z" />
    <glyph glyph-name="m" unicode="m" horiz-adv-x="981" 
d="M694 553c160 0 233 -74 233 -250v-303h-139v303c0 84 -42 125 -118 125c-46 0 -79 -16 -108 -43c5 -15 6 -35 6 -84v-301h-139v303c0 83 -37 125 -109 125c-49 0 -88 -16 -117 -43v-385h-140v543h140v-34c39 28 88 44 141 44c84 0 143 -21 180 -69c46 43 106 69 170 69z
" />
    <glyph glyph-name="n" unicode="n" horiz-adv-x="636" 
d="M347 553c159 0 232 -74 232 -250v-303h-139v303c0 84 -41 125 -118 125c-49 0 -89 -16 -120 -43v-385h-139v543h139v-34c40 28 90 44 145 44z" />
    <glyph glyph-name="o" unicode="o" horiz-adv-x="666" 
d="M332 553c164 0 297 -125 297 -281c0 -155 -133 -280 -297 -280s-297 125 -297 280c0 156 133 281 297 281zM332 117c89 0 160 70 160 155c0 86 -71 156 -160 156c-88 0 -160 -70 -160 -156c0 -85 72 -155 160 -155z" />
    <glyph glyph-name="p" unicode="p" horiz-adv-x="674" 
d="M360 553c151 0 275 -111 275 -281c0 -167 -124 -280 -275 -280c-58 0 -113 15 -158 41v-208h-139v718h139v-32c45 26 101 42 158 42zM335 117c93 0 163 63 163 155c0 89 -70 156 -163 156c-52 0 -99 -18 -133 -47v-218c33 -29 80 -46 133 -46z" />
    <glyph glyph-name="q" unicode="q" horiz-adv-x="674" 
d="M472 543h139v-718h-139v208c-46 -26 -100 -41 -159 -41c-151 0 -274 113 -274 280c0 170 123 281 274 281c57 0 114 -16 159 -42v32zM176 272c0 -92 69 -155 162 -155c53 0 100 17 134 46v218c-35 29 -81 47 -134 47c-93 0 -162 -67 -162 -156z" />
    <glyph glyph-name="r" unicode="r" horiz-adv-x="436" 
d="M203 543v-76c37 51 94 85 171 86c10 0 23 -2 34 -6v-151s-38 8 -67 8c-100 0 -138 -71 -138 -142v-262h-140v543h140z" />
    <glyph glyph-name="s" unicode="s" horiz-adv-x="521" 
d="M33 44l52 103c67 -29 118 -44 186 -44c64 0 89 24 89 52c0 31 -31 45 -115 63c-117 26 -202 64 -202 169c0 98 81 166 207 166c85 0 153 -20 212 -44l-46 -102c-53 20 -115 35 -169 35c-53 0 -80 -19 -80 -48c0 -30 33 -44 120 -62c126 -26 199 -70 199 -169
c0 -103 -79 -171 -218 -171c-94 0 -155 13 -235 52z" />
    <glyph glyph-name="t" unicode="t" horiz-adv-x="417" 
d="M390 428h-152v-192c0 -97 16 -125 86 -125c24 0 45 3 64 5v-104c-6 -2 -48 -20 -126 -20c-91 0 -164 57 -164 171v265h-77v115h77v211h140v-211h152v-115z" />
    <glyph glyph-name="u" unicode="u" horiz-adv-x="639" 
d="M437 543h139v-543h-139v36c-41 -28 -92 -44 -148 -44c-159 0 -232 74 -232 250v301h139v-301c0 -84 41 -125 118 -125c50 0 91 16 123 43v383z" />
    <glyph glyph-name="v" unicode="v" horiz-adv-x="619" 
d="M457 543h146l-260 -543h-66l-261 543h146l148 -308z" />
    <glyph glyph-name="w" unicode="w" horiz-adv-x="857" 
d="M705 543h138l-203 -543h-69l-142 337l-143 -337h-68l-204 543h139l116 -314l125 314h69l125 -314z" />
    <glyph glyph-name="x" unicode="x" horiz-adv-x="586" 
d="M294 160l-127 -160h-150l199 278l-197 265h156l119 -159l119 159h156l-197 -265l199 -278h-151z" />
    <glyph glyph-name="y" unicode="y" horiz-adv-x="620" 
d="M457 543h143l-224 -572c-48 -123 -176 -159 -290 -159c-18 0 -34 0 -49 1l17 105h15c75 0 142 19 173 82h-12l-212 543h146l143 -369h10z" />
    <glyph glyph-name="z" unicode="z" horiz-adv-x="572" 
d="M545 476l-308 -361h302v-115h-509v68l307 360h-287v115h495v-67z" />
    <glyph glyph-name="braceleft" unicode="{" horiz-adv-x="455" 
d="M419 709v-90c-101 0 -126 -31 -126 -121v-76c0 -83 -19 -126 -82 -144c63 -17 82 -57 82 -141v-81c0 -89 25 -121 126 -121v-90c-132 0 -233 14 -233 156v44c0 146 -2 181 -153 181v105c151 0 153 38 153 184v38c0 143 101 156 233 156z" />
    <glyph glyph-name="bar" unicode="|" horiz-adv-x="322" 
d="M105 -128v926h108v-926h-108z" />
    <glyph glyph-name="braceright" unicode="}" horiz-adv-x="453" 
d="M37 619v90c131 0 233 -13 233 -156v-38c0 -146 2 -184 152 -184v-105c-150 0 -152 -35 -152 -181v-44c0 -142 -102 -156 -233 -156v90c101 0 125 31 125 120v82c0 84 19 124 83 141c-64 18 -83 61 -83 144v77c0 89 -24 120 -125 120z" />
    <glyph glyph-name="asciitilde" unicode="~" horiz-adv-x="491" 
d="M106 224l-64 8c3 98 52 154 118 154c61 0 120 -42 159 -42c29 0 52 25 64 63l64 -8c-4 -96 -54 -154 -115 -154c-60 0 -121 42 -159 42c-33 0 -55 -26 -67 -63z" />
    <glyph glyph-name="quotesinglbase" unicode="&#x201a;" horiz-adv-x="252" 
d="M119 152c45 0 75 -34 75 -94c0 -72 -28 -170 -158 -170l-19 56c58 1 85 20 89 56c-35 7 -61 37 -61 75c0 43 33 77 74 77z" />
    <glyph glyph-name="florin" unicode="&#x192;" horiz-adv-x="553" 
d="M529 730v-104c-19 4 -36 8 -61 8c-66 0 -86 -28 -104 -106l-7 -31h119v-115h-141l-32 -170c-22 -114 -107 -173 -197 -173c-36 0 -45 6 -61 11v111c6 -1 12 -2 19 -2c73 0 95 43 114 135l18 88h-80v115h102l17 84c23 115 106 173 197 173c76 0 95 -21 97 -24z" />
    <glyph glyph-name="quotedblbase" unicode="&#x201e;" horiz-adv-x="458" 
d="M120 152c46 0 76 -34 76 -94c0 -72 -29 -170 -158 -170l-19 56c58 1 84 20 88 56c-34 7 -60 37 -60 75c0 43 33 77 73 77zM344 152c46 0 76 -34 76 -94c0 -72 -28 -170 -158 -170l-19 56c58 1 85 20 89 56c-35 7 -61 37 -61 75c0 43 33 77 73 77z" />
    <glyph glyph-name="ellipsis" unicode="&#x2026;" horiz-adv-x="729" 
d="M117 154c44 0 79 -36 79 -81s-35 -81 -79 -81s-79 36 -79 81s35 81 79 81zM363 154c44 0 79 -36 79 -81s-35 -81 -79 -81s-80 36 -80 81s36 81 80 81zM610 154c44 0 79 -36 79 -81s-35 -81 -79 -81c-43 0 -79 36 -79 81s36 81 79 81z" />
    <glyph glyph-name="dagger" unicode="&#x2020;" horiz-adv-x="410" 
d="M366 594v-72l-108 5h-22v-122l5 -145h-70l6 145v122h-23l-109 -5v72l109 -5h21l-3 108h69l-4 -108h21z" />
    <glyph glyph-name="daggerdbl" unicode="&#x2021;" horiz-adv-x="430" 
d="M245 246l1 -76h21l109 5v-72l-109 5h-21l5 -108h-69l3 108h-21l-109 -6v73l108 -5h23v76l-4 106l4 102v76h-22l-109 -5v72l108 -5h22l-4 109h70l-5 -109h21l109 6v-73l-109 5h-21v-76l3 -102z" />
    <glyph glyph-name="circumflex" unicode="&#x2c6;" horiz-adv-x="500" 
d="M60 750l146 156h85l147 -156h-96l-94 88l-93 -88h-95z" />
    <glyph glyph-name="perthousand" unicode="&#x2030;" horiz-adv-x="1288" 
d="M391 516c0 -124 -80 -197 -179 -197s-179 73 -179 197c0 125 80 197 179 197s179 -72 179 -197zM125 516c0 -62 39 -105 87 -105s87 43 87 105c0 63 -39 106 -87 106s-87 -43 -87 -106zM675 385c98 0 179 -72 179 -197c0 -124 -81 -196 -179 -196c-99 0 -179 72 -179 196
c0 125 80 197 179 197zM675 83c48 0 87 43 87 105c0 63 -39 106 -87 106s-87 -43 -87 -106c0 -62 39 -105 87 -105zM1070 385c99 0 179 -72 179 -197c0 -124 -80 -196 -179 -196s-179 72 -179 196c0 125 80 197 179 197zM1070 83c48 0 87 43 87 105c0 63 -39 106 -87 106
s-87 -43 -87 -106c0 -62 39 -105 87 -105zM632 701h102l-483 -701h-102z" />
    <glyph glyph-name="guilsinglleft" unicode="&#x2039;" horiz-adv-x="335" 
d="M206 7l-175 259l175 259l90 -68l-141 -191l141 -190z" />
    <glyph glyph-name="OE" unicode="&#x152;" horiz-adv-x="1053" 
d="M44 352c0 195 161 353 359 353h587v-124h-381v-179h319v-120h-319v-158h402v-124h-592c-235 0 -375 163 -375 352zM426 131h44v450h-44c-110 0 -240 -64 -240 -229s112 -221 240 -221z" />
    <glyph glyph-name="quoteleft" unicode="&#x2018;" horiz-adv-x="250" 
d="M122 441c-46 0 -76 34 -76 94c0 72 29 170 158 170l19 -56c-58 -1 -84 -20 -89 -56c35 -7 61 -37 61 -75c0 -43 -33 -77 -73 -77z" />
    <glyph glyph-name="quoteright" unicode="&#x2019;" horiz-adv-x="245" 
d="M128 706c46 0 76 -33 76 -94c0 -72 -29 -170 -158 -170l-19 56c58 1 84 20 88 56c-34 7 -60 37 -60 76c0 42 33 76 73 76z" />
    <glyph glyph-name="quotedblleft" unicode="&#x201c;" horiz-adv-x="471" 
d="M343 439c-45 0 -75 33 -75 94c0 71 28 169 158 169l19 -56c-58 -1 -85 -20 -89 -56c35 -6 61 -37 61 -75c0 -42 -33 -76 -74 -76zM119 439c-46 0 -76 33 -76 94c0 71 29 169 158 169l19 -56c-58 -1 -84 -20 -88 -56c35 -6 61 -37 61 -75c0 -42 -34 -76 -74 -76z" />
    <glyph glyph-name="quotedblright" unicode="&#x201d;" horiz-adv-x="469" 
d="M130 706c46 0 76 -33 76 -94c0 -72 -28 -170 -158 -170l-19 56c58 1 85 20 89 56c-35 7 -61 37 -61 76c0 42 33 76 73 76zM355 706c45 0 75 -33 75 -94c0 -72 -28 -170 -157 -170l-19 56c58 1 84 20 88 56c-35 7 -61 37 -61 76c0 42 34 76 74 76z" />
    <glyph glyph-name="bullet" unicode="&#x2022;" horiz-adv-x="458" 
d="M358 352c0 -73 -58 -131 -129 -131c-72 0 -130 58 -130 131c0 72 58 130 130 130c71 0 129 -58 129 -130z" />
    <glyph glyph-name="endash" unicode="&#x2013;" horiz-adv-x="528" 
d="M484 392v-119h-442v119h442z" />
    <glyph glyph-name="emdash" unicode="&#x2014;" horiz-adv-x="898" 
d="M854 392v-119h-811v119h811z" />
    <glyph glyph-name="tilde" unicode="&#x2dc;" horiz-adv-x="500" 
d="M109 740l-64 7c3 98 52 155 118 155c61 0 119 -42 159 -42c29 0 52 25 64 63l64 -9c-4 -95 -55 -154 -115 -154s-122 42 -159 42c-34 0 -55 -25 -67 -62z" />
    <glyph glyph-name="trademark" unicode="&#x2122;" horiz-adv-x="695" 
d="M287 699v-56h-102v-256h-66v256h-103v56h271zM633 699h32v-312h-67v165l-98 -129l-98 129v-165h-66v312h31l133 -176z" />
    <glyph glyph-name="guilsinglright" unicode="&#x203a;" horiz-adv-x="328" 
d="M121 525l175 -259l-175 -259l-90 69l141 190l-141 191z" />
    <glyph glyph-name="oe" unicode="&#x153;" horiz-adv-x="1067" 
d="M1031 232h-402c15 -71 72 -121 155 -121c57 0 110 26 140 67l89 -74c-50 -68 -139 -112 -245 -112c-94 0 -171 41 -220 104c-46 -64 -126 -105 -220 -105c-163 0 -291 126 -291 281c0 154 128 281 294 281c93 0 172 -41 217 -104c49 63 126 104 220 104
c167 0 264 -121 264 -290c0 -11 -1 -22 -1 -31zM332 115c92 0 158 70 158 157c0 86 -69 157 -159 157c-92 0 -158 -70 -158 -157c0 -86 70 -157 159 -157zM768 442c-73 0 -125 -54 -138 -121h269c-5 62 -38 121 -131 121z" />
    <glyph glyph-name="exclamdown" unicode="&#xa1;" horiz-adv-x="281" 
d="M91 468h97l24 -468h-144zM140 550c-44 0 -79 36 -79 81s35 81 79 81s79 -36 79 -81s-35 -81 -79 -81z" />
    <glyph glyph-name="cent" unicode="&#xa2;" horiz-adv-x="575" 
d="M396 520l-67 -326c6 0 12 -1 18 -1c43 0 88 32 114 67l87 -76c-50 -61 -123 -100 -206 -103c-11 0 -23 0 -34 1l-17 -82h-90l19 100c-109 42 -188 145 -188 266c0 164 138 285 298 286l13 62h90l-15 -78c52 -16 97 -47 131 -87l-88 -75c-18 20 -40 37 -65 46zM152 366
c0 -65 37 -121 91 -150l66 324c-89 -11 -157 -84 -157 -174z" />
    <glyph glyph-name="sterling" unicode="&#xa3;" horiz-adv-x="639" 
d="M604 120v-120h-561v67l103 46c-5 39 -13 96 -18 147h-82v107h75c-2 17 -2 35 -2 50c0 215 113 296 254 296c94 0 176 -51 219 -127l-92 -81c-23 42 -67 74 -123 74c-72 0 -114 -48 -114 -137c0 -23 1 -49 2 -75h247v-107h-238c6 -47 13 -100 19 -140h311z" />
    <glyph glyph-name="Euro" unicode="&#x20ac;" horiz-adv-x="704" 
d="M425 126c80 0 122 34 160 83l97 -85c-59 -85 -152 -132 -257 -132c-150 0 -276 97 -314 257h-77v68h68c-1 12 -2 23 -2 35c0 11 1 22 2 33h-68v68h77c37 160 164 259 314 259c105 0 198 -49 257 -132l-97 -86c-38 48 -80 83 -160 83c-72 0 -135 -51 -160 -124h198v-68
h-216c-2 -11 -3 -22 -3 -33c0 -12 1 -23 3 -35h216v-68h-198c26 -73 88 -123 160 -123z" />
    <glyph glyph-name="yen" unicode="&#xa5;" horiz-adv-x="720" 
d="M700 705l-214 -366h139v-94h-191l-4 -9v-37h195v-94h-195v-105h-144v105h-195v94h195v37l-4 9h-191v94h138l-213 366h163l178 -311l180 311h163z" />
    <glyph glyph-name="section" unicode="&#xa7;" horiz-adv-x="626" 
d="M565 334c0 -46 -44 -86 -74 -95c19 -18 31 -41 31 -79c0 -99 -80 -169 -214 -169c-91 0 -152 9 -235 51l52 96c61 -30 104 -43 172 -43c66 0 101 26 101 49c0 84 -346 44 -346 209c0 47 35 81 86 106c-33 21 -53 58 -53 104c0 97 87 149 205 149c89 0 185 -23 242 -45
l-46 -103c-52 19 -133 41 -199 41c-47 0 -77 -21 -77 -53c0 -48 129 -63 160 -70c111 -25 195 -44 195 -148zM331 391c-37 9 -76 18 -111 29c-34 -10 -59 -34 -59 -55c0 -50 121 -55 237 -86c25 4 59 21 59 49c0 25 -37 43 -126 63z" />
    <glyph glyph-name="dieresis" unicode="&#xa8;" horiz-adv-x="500" 
d="M348 883c37 0 66 -30 66 -67s-29 -68 -66 -68c-36 0 -66 31 -66 68s30 67 66 67zM153 883c36 0 66 -30 66 -67s-30 -68 -66 -68c-37 0 -67 31 -67 68s30 67 67 67z" />
    <glyph glyph-name="copyright" unicode="&#xa9;" horiz-adv-x="830" 
d="M416 716c202 0 359 -165 359 -362c0 -196 -158 -362 -361 -362c-202 0 -359 165 -359 362c0 196 158 362 361 362zM733 354c0 176 -137 320 -317 320s-319 -146 -319 -321c0 -176 138 -320 317 -320c181 0 319 146 319 321zM418 225c39 0 74 21 96 52l63 -55
c-37 -48 -95 -78 -159 -78c-113 0 -205 94 -205 210s92 209 205 209c64 0 122 -30 159 -78l-63 -55c-22 32 -57 52 -96 52c-66 0 -120 -57 -120 -128c0 -72 54 -129 120 -129z" />
    <glyph glyph-name="guillemotleft" unicode="&#xab;" horiz-adv-x="594" 
d="M460 7l-175 259l175 259l90 -68l-141 -191l141 -190zM213 7l-175 259l175 259l90 -68l-141 -191l141 -190z" />
    <glyph glyph-name="registered" unicode="&#xae;" horiz-adv-x="830" 
d="M417 716c202 0 359 -165 359 -362c0 -196 -158 -362 -361 -362c-202 0 -359 165 -359 362c0 196 158 362 361 362zM733 354c0 176 -136 320 -316 320c-181 0 -319 -146 -319 -321c0 -176 137 -320 317 -320c181 0 318 146 318 321zM603 201l-59 -61l-109 119
c-6 -1 -12 -1 -19 -1h-77v-104h-86v407h179c119 0 160 -71 160 -147c0 -62 -23 -104 -66 -128zM339 489v-167h69c65 0 95 34 95 83c0 43 -22 84 -83 84h-81z" />
    <glyph glyph-name="macron" unicode="&#xaf;" horiz-adv-x="500" 
d="M92 766v90h316v-90h-316z" />
    <glyph glyph-name="degree" unicode="&#xb0;" horiz-adv-x="472" 
d="M236 364c-99 0 -182 80 -182 178c0 97 86 178 182 178s182 -81 182 -180c0 -96 -83 -176 -182 -176zM236 437c59 0 106 46 106 104c0 59 -49 105 -106 105c-58 0 -107 -47 -107 -105s48 -104 107 -104z" />
    <glyph glyph-name="acute" unicode="&#xb4;" horiz-adv-x="500" 
d="M411 914l-185 -164h-86l120 177z" />
    <glyph glyph-name="paragraph" unicode="&#xb6;" horiz-adv-x="582" 
d="M297 700h219v-700h-195v236h-21c-159 0 -275 81 -275 231s108 233 272 233zM321 394v172h-16c-66 0 -110 -25 -110 -86c0 -57 44 -86 104 -86h22z" />
    <glyph glyph-name="periodcentered" unicode="&#xb7;" horiz-adv-x="246" 
d="M202 313c0 -45 -36 -81 -80 -81s-79 36 -79 81s35 81 79 81s80 -36 80 -81z" />
    <glyph glyph-name="cedilla" unicode="&#xb8;" horiz-adv-x="429" 
d="M144 -78l67 79h83l-25 -55c10 0 33 -19 33 -49c0 -42 -36 -85 -138 -85c-21 0 -54 3 -54 3l-5 48c11 -1 26 -2 39 -2c42 0 69 13 69 34c0 19 -32 27 -69 27z" />
    <glyph glyph-name="guillemotright" unicode="&#xbb;" horiz-adv-x="593" 
d="M557 266l-175 -259l-90 69l141 190l-141 191l90 68zM311 266l-176 -259l-89 69l140 190l-140 191l89 68z" />
    <glyph glyph-name="questiondown" unicode="&#xbf;" horiz-adv-x="540" 
d="M288 -9c-152 0 -257 83 -257 222c0 107 75 196 225 196l5 81h99l8 -136l-13 -33h-48c-86 0 -150 -36 -150 -103c0 -66 58 -104 127 -104c74 0 133 11 195 39l47 -111c-82 -42 -140 -51 -238 -51zM311 550c-44 0 -79 36 -79 81c0 46 35 82 79 82s79 -36 79 -82
c0 -45 -35 -81 -79 -81z" />
    <glyph glyph-name="AE" unicode="&#xc6;" horiz-adv-x="1036" 
d="M593 124h401v-124h-541v143h-229l-70 -143h-151l356 705h614v-124h-380v-179h318v-120h-318v-158zM427 570l-151 -308h177v308h-26z" />
    <glyph glyph-name="Eth" unicode="&#xd0;" horiz-adv-x="808" 
d="M40 293v118h89v294h279c196 0 355 -158 355 -353c0 -187 -147 -352 -332 -352h-302v293h-89zM268 131h151c112 0 203 103 203 221c0 122 -96 222 -214 222h-140v-163h151v-118h-151v-162z" />
    <glyph glyph-name="Oslash" unicode="&#xd8;" 
d="M59 0l89 104c-64 64 -104 152 -104 248c0 199 168 360 375 360c75 0 145 -21 203 -58l45 51h119l-94 -109c63 -64 102 -150 102 -244c0 -199 -167 -360 -375 -360c-74 0 -142 20 -200 55l-41 -47h-119zM191 352c0 -52 19 -99 51 -135l291 330c-33 19 -72 31 -114 31
c-126 0 -228 -102 -228 -226zM419 126c126 0 229 101 229 226c0 49 -19 95 -50 131l-289 -329c32 -18 69 -28 110 -28z" />
    <glyph glyph-name="Thorn" unicode="&#xde;" horiz-adv-x="666" 
d="M73 0v704h143v-92h147c177 0 276 -98 276 -253c0 -177 -122 -260 -291 -260h-132v-99h-143zM216 218h129c91 0 150 48 150 139c0 82 -45 135 -143 135h-136v-274z" />
    <glyph glyph-name="germandbls" unicode="&#xdf;" horiz-adv-x="663" 
d="M488 418c88 -31 136 -103 136 -181c0 -164 -117 -245 -260 -245c-22 0 -44 2 -64 7v118c15 -3 30 -5 45 -5c76 0 142 38 142 125c0 61 -47 115 -136 115h-20v107h9c56 0 88 46 88 94c0 57 -47 94 -113 94c-75 0 -113 -57 -113 -118v-702h-139v675c0 163 113 260 251 260
c142 0 245 -77 245 -216c0 -56 -28 -101 -71 -128z" />
    <glyph glyph-name="ae" unicode="&#xe6;" horiz-adv-x="1101" 
d="M1064 232h-402c15 -71 72 -121 155 -121c57 0 110 26 140 67l89 -74c-50 -68 -139 -112 -245 -112c-76 0 -140 26 -188 70v-62h-140v40c-45 -30 -99 -48 -158 -48c-152 0 -275 113 -275 280c0 170 123 281 275 281c56 0 113 -17 158 -44v34h140v-60c48 43 112 70 188 70
c167 0 264 -121 264 -290c0 -11 -1 -22 -1 -31zM473 163v218c-34 29 -82 49 -133 49c-94 0 -166 -69 -166 -158c0 -92 72 -157 166 -157c52 0 99 19 133 48zM801 442c-73 0 -125 -54 -138 -121h269c-5 62 -38 121 -131 121z" />
    <glyph glyph-name="eth" unicode="&#xf0;" horiz-adv-x="652" 
d="M170 754h151c20 -21 41 -45 62 -68l122 42l47 -71l-115 -40c101 -120 180 -239 180 -373c0 -140 -137 -252 -296 -252c-164 0 -297 119 -297 264c0 118 95 238 265 238c51 0 93 -11 109 -18c-38 53 -62 74 -82 97l-152 -52l-49 70l148 52zM321 117c88 0 160 59 160 141
c0 84 -78 134 -160 134c-89 0 -161 -56 -161 -136s72 -139 161 -139z" />
    <glyph glyph-name="oslash" unicode="&#xf8;" horiz-adv-x="667" 
d="M39 0l74 84c-49 49 -78 115 -78 188c0 156 133 281 297 281c59 0 115 -17 161 -45l34 38h101l-77 -87c48 -49 78 -114 78 -187c0 -155 -133 -280 -297 -280c-59 0 -113 16 -159 43l-32 -35h-102zM332 117c89 0 160 70 160 155c0 31 -12 60 -33 82l-200 -219
c21 -12 46 -18 73 -18zM172 272c0 -32 12 -61 32 -83l202 220c-21 12 -47 19 -74 19c-88 0 -160 -70 -160 -156z" />
    <glyph glyph-name="thorn" unicode="&#xfe;" horiz-adv-x="674" 
d="M360 553c151 0 275 -111 275 -281c0 -167 -124 -280 -275 -280c-58 0 -113 15 -158 41v-208h-139v929h139v-243c45 26 101 42 158 42zM335 117c93 0 163 63 163 155c0 89 -70 156 -163 156c-52 0 -99 -18 -133 -47v-218c33 -29 80 -46 133 -46z" />
    <glyph glyph-name="intelligentdesign" horiz-adv-x="967" 
d="M652 619c67 -27 114 -93 114 -169c0 -77 -47 -143 -114 -170c-27 -67 -93 -114 -170 -114s-142 47 -170 114c-67 27 -114 93 -114 170c0 76 47 142 114 169c28 67 93 114 170 114s142 -47 170 -114zM504 471h112c0 65 -49 120 -112 131v-131zM504 428v-131
c63 12 112 66 112 131h-112zM461 294v134h-69v-134h69zM461 471v134h-69v-134h69zM286 111c26 0 47 -20 47 -45s-21 -46 -47 -46s-47 21 -47 46s21 45 47 45zM678 48c4 -4 9 -7 15 -10l-9 -21c-13 5 -23 13 -32 24h-15v-19h-24v88h41c27 0 36 -16 36 -34
c0 -12 -4 -22 -12 -28zM604 66c0 -24 -18 -44 -41 -44h-33v88h30c25 0 44 -20 44 -44zM492 64v46h24v-88h-11l-47 45v-45h-24v88h11zM398 109h24v-52c0 -22 -19 -37 -41 -37c-21 0 -41 15 -41 37v52h24v-46c0 -16 6 -21 17 -21s17 5 17 21v46zM732 77l18 32h27l-33 -58v-29
h-24v29l-33 58h27zM234 110v-20h-18v-32h17v-17h-17v-19h-24v19h-5v17h5v52h42zM286 42c12 0 22 11 22 24s-10 23 -22 23c-13 0 -23 -10 -23 -23s10 -24 23 -24zM650 -134c0 -12 -11 -21 -21 -21h-12v42h12c12 0 21 -10 21 -21zM554 43h7c11 0 19 10 19 23
c0 12 -9 22 -20 22h-6v-45zM907 -144l10 -11h-6l-8 9h-10v-9h-4v42h11c9 0 16 -8 16 -16c0 -6 -3 -12 -9 -15zM650 90h-13v-32h11c12 1 17 6 17 16c0 8 -4 16 -15 16zM629 -151c9 0 17 8 17 17c0 10 -8 17 -17 17h-8v-34h8zM145 -149l12 37h4l-14 -42h-4l-9 35l-8 -35h-4
l-14 42h4l12 -37l8 37h4zM207 -149l12 37h4l-14 -42h-4l-9 35l-8 -35h-4l-14 42h4l12 -37l8 37h4zM85 -149l12 37h4l-14 -42h-4l-9 35l-8 -35h-4l-14 42h4l12 -37l8 37h4zM566 -148v35h4v-42h-4l-25 36v-36h-4v42h4zM819 -148v35h4v-42h-4l-25 36v-36h-4v42h4zM288 -148v35
h4v-42h-4l-25 36v-36h-4v42h4zM479 -142v4h14v-11s-6 -6 -16 -6c-13 0 -22 9 -22 21s10 22 21 22c7 0 12 -3 16 -7l-3 -3c-3 4 -8 6 -13 6c-9 0 -17 -8 -17 -18c0 -9 8 -17 18 -17c7 0 12 4 12 4v5h-10zM766 -142v4h14v-11s-6 -6 -16 -6c-13 0 -22 9 -22 21s10 22 21 22
c7 0 12 -3 16 -7l-3 -3c-3 4 -8 6 -13 6c-9 0 -17 -8 -17 -18c0 -9 8 -17 18 -17c7 0 12 4 12 4v5h-10zM866 -142v4h14v-11s-6 -6 -16 -6c-13 0 -22 9 -22 21s10 22 21 22c7 0 12 -3 16 -7l-3 -3c-3 4 -8 6 -13 6c-9 0 -17 -8 -17 -18c0 -9 8 -17 18 -17c7 0 12 4 12 4v5
h-10zM341 -113h26v-4h-22v-18h20v-4h-20v-12h22v-4h-26v42zM659 -113h26v-4h-22v-18h20v-4h-20v-12h22v-4h-26v42zM502 -113h26v-4h-22v-18h20v-4h-20v-12h22v-4h-26v42zM893 -142h7c7 1 12 7 12 13c0 7 -6 12 -12 12h-7v-25zM708 -131c8 -3 11 -7 11 -12
c0 -7 -5 -12 -12 -12s-13 4 -15 9l3 2c2 -4 6 -7 12 -7c4 0 8 3 8 8c0 3 -2 6 -8 8c-10 4 -12 7 -12 12c0 6 5 11 11 11c5 0 9 -3 11 -7l-3 -2c-2 3 -4 5 -8 5c-3 0 -7 -3 -7 -7s3 -6 9 -8zM314 -117h-13v4h30v-4h-13v-38h-4v38zM591 -117h-13v4h30v-4h-13v-38h-4v38z
M409 -113h4v-38h20v-4h-24v42zM376 -113h4v-38h20v-4h-24v42zM244 -113h4v-42h-4v42zM442 -113h4v-42h-4v42zM729 -113h4v-42h-4v42zM225 -152c0 2 2 4 4 4s4 -2 4 -4s-2 -4 -4 -4s-4 2 -4 4zM830 -152c0 2 2 4 4 4s4 -2 4 -4s-2 -4 -4 -4s-4 2 -4 4z" />
    <glyph glyph-name="uni00AD" unicode="&#xad;" horiz-adv-x="408" 
d="M365 392v-119h-322v119h322z" />
    <glyph glyph-name="onesuperior" unicode="&#xb9;" horiz-adv-x="388" 
d="M227 705h38v-406h-85v322l-77 -17l-17 69z" />
    <glyph glyph-name="threesuperior" unicode="&#xb3;" horiz-adv-x="415" 
d="M344 666l-103 -129c64 -14 111 -48 111 -113c0 -82 -65 -131 -163 -131c-64 0 -102 6 -155 30c9 20 22 46 31 67c44 -19 81 -23 127 -23c40 0 77 20 77 58c0 24 -22 59 -91 59h-32l-15 35l90 112h-167v73h290v-38z" />
    <glyph glyph-name="twosuperior" unicode="&#xb2;" horiz-adv-x="415" 
d="M203 373h160v-74h-319v37c73 104 237 128 237 219c0 45 -37 81 -82 81s-79 -39 -79 -81v-4h-76v9c0 90 73 155 157 155c85 0 159 -67 159 -155c0 -104 -89 -138 -157 -187z" />
    <glyph glyph-name="KB" unicode="&#xa4;" horiz-adv-x="973" 
d="M651 619c67 -27 114 -93 114 -169c0 -77 -47 -143 -114 -170c-27 -67 -93 -114 -169 -114c-77 0 -143 47 -170 114c-67 27 -114 93 -114 170c0 76 47 142 114 169c27 67 93 114 170 114c76 0 142 -47 169 -114zM503 294h35c42 0 77 35 77 78c0 22 -9 42 -24 56h-88v-134z
M503 471h88c15 14 24 34 24 56c0 43 -35 78 -77 78h-35v-134zM391 363l69 -69v134h-112v-134h43v69zM348 471h112v134l-69 -69v69h-43v-134zM777 75c10 -4 17 -14 17 -26c0 -14 -9 -27 -27 -27h-47v88h39c19 0 26 -9 26 -19c0 -7 -3 -12 -8 -16zM159 66
c0 -24 -18 -44 -41 -44h-33v88h30c25 0 44 -20 44 -44zM690 66c0 -24 -18 -44 -41 -44h-33v88h30c25 0 44 -20 44 -44zM504 64v46h24v-88h-11l-47 45v-45h-24v88h11zM396 66h41v-33c-10 -8 -25 -12 -39 -13c-26 0 -47 21 -47 46s21 45 47 45c15 0 27 -5 36 -13l-16 -16
c-5 4 -12 7 -20 7c-12 0 -22 -10 -22 -23c0 -14 10 -25 22 -25c5 0 10 2 14 4v4h-16v17zM238 29l9 18c11 -5 20 -7 30 -7c7 0 10 3 10 6c0 4 -3 6 -14 9c-19 4 -33 9 -33 28c0 16 12 28 33 28c15 0 27 -4 36 -7l-10 -19c-8 3 -18 6 -26 6c-6 0 -9 -3 -9 -6c0 -4 3 -6 15 -9
c20 -4 33 -11 33 -27c0 -18 -14 -29 -36 -29c-15 0 -24 2 -38 9zM563 61v-20h42v-19h-66v88h64v-20h-40v-12h27v-17h-27zM190 61v-20h42v-19h-66v88h63v-20h-39v-12h26v-17h-26zM833 77l18 32h28l-34 -58v-29h-24v29l-33 58h27zM344 22h-24v88h24v-88zM650 -134
c0 -12 -11 -21 -21 -21h-12v42h12c12 0 21 -10 21 -21zM109 43h7c11 0 19 10 19 23c0 12 -9 22 -20 22h-6v-45zM640 43h7c11 0 19 10 19 23c0 12 -9 22 -20 22h-6v-45zM907 -144l10 -11h-6l-8 9h-10v-9h-4v42h11c9 0 16 -8 16 -16c0 -6 -3 -12 -9 -15zM629 -151
c9 0 17 8 17 17c0 10 -8 17 -17 17h-8v-34h8zM207 -149l12 37h4l-14 -42h-4l-9 35l-8 -35h-4l-14 42h4l12 -37l8 37h4zM85 -149l12 37h4l-14 -42h-4l-9 35l-8 -35h-4l-14 42h4l12 -37l8 37h4zM145 -149l12 37h4l-14 -42h-4l-9 35l-8 -35h-4l-14 42h4l12 -37l8 37h4z
M566 -148v35h4v-42h-4l-25 36v-36h-4v42h4zM819 -148v35h4v-42h-4l-25 36v-36h-4v42h4zM288 -148v35h4v-42h-4l-25 36v-36h-4v42h4zM743 41h11c11 0 15 5 15 11c0 7 -6 10 -18 10h-8v-21zM866 -142v4h14v-11s-6 -6 -16 -6c-13 0 -22 9 -22 21s10 22 21 22c7 0 12 -3 16 -7
l-3 -3c-3 4 -8 6 -13 6c-9 0 -17 -8 -17 -18c0 -9 8 -17 18 -17c7 0 12 4 12 4v5h-10zM766 -142v4h14v-11s-6 -6 -16 -6c-13 0 -22 9 -22 21s10 22 21 22c7 0 12 -3 16 -7l-3 -3c-3 4 -8 6 -13 6c-9 0 -17 -8 -17 -18c0 -9 8 -17 18 -17c7 0 12 4 12 4v5h-10zM479 -142v4h14
v-11s-6 -6 -16 -6c-13 0 -22 9 -22 21s10 22 21 22c7 0 12 -3 16 -7l-3 -3c-3 4 -8 6 -13 6c-9 0 -17 -8 -17 -18c0 -9 8 -17 18 -17c7 0 12 4 12 4v5h-10zM502 -113h26v-4h-22v-18h20v-4h-20v-12h22v-4h-26v42zM659 -113h26v-4h-22v-18h20v-4h-20v-12h22v-4h-26v42z
M341 -113h26v-4h-22v-18h20v-4h-20v-12h22v-4h-26v42zM893 -142h7c7 1 12 7 12 13c0 7 -6 12 -12 12h-7v-25zM708 -131c8 -3 11 -7 11 -12c0 -7 -5 -12 -12 -12s-13 4 -15 9l3 2c2 -4 6 -7 12 -7c4 0 8 3 8 8c0 3 -2 6 -8 8c-10 4 -12 7 -12 12c0 6 5 11 11 11
c5 0 9 -3 11 -7l-3 -2c-2 3 -4 5 -8 5c-3 0 -7 -3 -7 -7s3 -6 9 -8zM591 -117h-13v4h30v-4h-13v-38h-4v38zM314 -117h-13v4h30v-4h-13v-38h-4v38zM376 -113h4v-38h20v-4h-24v42zM409 -113h4v-38h20v-4h-24v42zM758 90h-15v-11h14c5 0 7 3 7 5c0 3 -2 6 -6 6zM244 -113h4v-42
h-4v42zM729 -113h4v-42h-4v42zM442 -113h4v-42h-4v42zM830 -152c0 2 2 4 4 4s4 -2 4 -4s-2 -4 -4 -4s-4 2 -4 4zM225 -152c0 2 2 4 4 4s4 -2 4 -4s-2 -4 -4 -4s-4 2 -4 4z" />
    <glyph glyph-name="dieresistonos" unicode="&#x385;" horiz-adv-x="570" 
d="M109 724c36 0 65 -30 65 -67s-29 -67 -65 -67c-37 0 -67 30 -67 67s30 67 67 67zM459 724c36 0 66 -30 66 -67s-30 -67 -66 -67c-37 0 -66 30 -66 67s29 67 66 67zM225 589l54 205l105 -25l-86 -180h-73z" />
    <glyph glyph-name="tonos" unicode="&#x384;" horiz-adv-x="413" 
d="M360 706l-188 -164h-87l125 176z" />
    <glyph glyph-name="Alpha" unicode="&#x391;" horiz-adv-x="768" 
d="M605 0l-64 143h-315l-63 -143h-151l336 705h71l337 -705h-151zM383 495l-106 -233h213z" />
    <glyph glyph-name="Beta" unicode="&#x392;" horiz-adv-x="708" 
d="M536 549c0 -40 -19 -84 -52 -104c112 -15 190 -111 190 -222c0 -117 -74 -223 -213 -223h-388v705h310c84 0 153 -69 153 -156zM212 581v-122h129c48 0 67 32 67 61c0 34 -28 61 -78 61h-118zM213 124h170c99 0 140 48 140 114c0 57 -42 115 -139 115h-171v-229z" />
    <glyph glyph-name="Gamma" unicode="&#x393;" horiz-adv-x="609" 
d="M579 705v-124h-363v-581h-143v705h506z" />
    <glyph glyph-name="Epsilon" unicode="&#x395;" horiz-adv-x="656" 
d="M212 124h402v-124h-541v705h520v-124h-381v-179h319v-120h-319v-158z" />
    <glyph glyph-name="Zeta" unicode="&#x396;" horiz-adv-x="682" 
d="M638 705v-65l-389 -516h391v-124h-597v62l390 519h-372v124h577z" />
    <glyph glyph-name="Eta" unicode="&#x397;" horiz-adv-x="750" 
d="M537 705h140v-705h-140v239h-325v-239h-139v705h139v-343h325v343z" />
    <glyph glyph-name="Theta" unicode="&#x398;" 
d="M419 712c207 0 375 -161 375 -360s-168 -360 -375 -360s-375 161 -375 360s168 360 375 360zM419 126c126 0 229 101 229 226c0 124 -103 226 -229 226s-228 -102 -228 -226c0 -125 102 -226 228 -226zM265 292v120h308v-120h-308z" />
    <glyph glyph-name="Iota" unicode="&#x399;" horiz-adv-x="295" 
d="M220 705v-705h-144v705h144z" />
    <glyph glyph-name="Kappa" unicode="&#x39a;" horiz-adv-x="715" 
d="M386 357l317 -357h-188l-222 246l-81 -86v-160h-139v705h139v-339l309 339h173z" />
    <glyph glyph-name="Lambda" unicode="&#x39b;" horiz-adv-x="757" 
d="M413 705l325 -705h-149l-210 481l-210 -481h-150l325 705h69z" />
    <glyph glyph-name="Mu" unicode="&#x39c;" horiz-adv-x="870" 
d="M727 705h70v-705h-144v390l-218 -306l-219 306v-390h-143v705h70l292 -404z" />
    <glyph glyph-name="Nu" unicode="&#x39d;" horiz-adv-x="780" 
d="M563 705h144v-705h-70l-421 444v-444h-143v705h70l420 -444v444z" />
    <glyph glyph-name="Xi" unicode="&#x39e;" horiz-adv-x="697" 
d="M54 123h602v-123h-602v123zM650 705v-123h-590v123h590zM594 293h-478v120h478v-120z" />
    <glyph glyph-name="Omicron" unicode="&#x39f;" 
d="M419 712c208 0 375 -161 375 -360s-167 -360 -375 -360c-207 0 -375 161 -375 360s168 360 375 360zM419 126c126 0 229 101 229 226c0 124 -103 226 -229 226s-228 -102 -228 -226c0 -125 102 -226 228 -226z" />
    <glyph glyph-name="Pi" unicode="&#x3a0;" horiz-adv-x="748" 
d="M73 705h603v-705h-139v582h-324v-582h-140v705z" />
    <glyph glyph-name="Rho" unicode="&#x3a1;" horiz-adv-x="664" 
d="M73 705h290c206 0 276 -122 276 -254c0 -193 -125 -270 -304 -270h-119v-181h-143v705zM216 300h105c114 0 168 57 168 140c0 73 -38 141 -149 141h-124v-281z" />
    <glyph glyph-name="Sigma" unicode="&#x3a3;" horiz-adv-x="674" 
d="M251 124h382v-124h-592v65l226 287l-216 288v65h576v-124h-371l173 -229z" />
    <glyph glyph-name="Tau" unicode="&#x3a4;" horiz-adv-x="660" 
d="M628 705v-124h-225v-581h-144v581h-224v124h593z" />
    <glyph glyph-name="Upsilon" unicode="&#x3a5;" horiz-adv-x="699" 
d="M528 705h164l-271 -466v-239h-144v239l-270 466h163l180 -311z" />
    <glyph glyph-name="Phi" unicode="&#x3a6;" horiz-adv-x="908" 
d="M866 362v-9c-1 -169 -154 -300 -325 -300h-17v-53h-139v53h-17c-163 3 -325 119 -325 300v10c2 165 151 300 325 300h17v42h139v-42h17c170 0 321 -128 325 -301zM183 358c0 -102 77 -178 185 -178h17v356h-17c-111 0 -185 -80 -185 -178zM524 536v-356h17
c108 0 185 77 185 178c0 98 -74 178 -185 178h-17z" />
    <glyph glyph-name="Chi" unicode="&#x3a7;" horiz-adv-x="733" 
d="M368 465l180 240h159l-246 -349l253 -356h-163l-183 247l-183 -247h-163l254 356l-247 349h161z" />
    <glyph glyph-name="Psi" unicode="&#x3a8;" horiz-adv-x="872" 
d="M678 705h139v-258c0 -162 -141 -292 -297 -292h-14v-155h-140v155h-14c-157 0 -297 130 -297 292v258h139v-258c0 -92 61 -165 158 -165h14v423h140v-423h14c97 0 158 73 158 165v258z" />
    <glyph glyph-name="alpha" unicode="&#x3b1;" horiz-adv-x="675" 
d="M473 543h140v-543h-140v40c-44 -30 -98 -48 -158 -48c-151 0 -275 113 -275 281c0 169 124 281 275 281c57 0 113 -18 158 -45v34zM473 163v218c-33 29 -81 47 -133 47c-94 0 -162 -67 -162 -155c0 -93 68 -156 162 -156c53 0 100 17 133 46z" />
    <glyph glyph-name="beta" unicode="&#x3b2;" horiz-adv-x="660" 
d="M490 418c87 -23 134 -103 134 -181c0 -164 -117 -245 -260 -245c-60 0 -116 15 -162 44v-209h-139v675c0 163 113 259 251 259c142 0 245 -75 245 -215c0 -56 -27 -110 -69 -128zM314 645c-80 0 -112 -55 -112 -116v-70h139c54 0 87 38 87 94c0 62 -47 92 -114 92z
M340 112c81 0 147 36 147 125c0 61 -47 115 -136 115h-149v-186c33 -30 83 -54 138 -54z" />
    <glyph glyph-name="gamma" unicode="&#x3b3;" horiz-adv-x="618" 
d="M457 543h143l-221 -545v-171h-140v174l-223 542h143l150 -347z" />
    <glyph glyph-name="delta" unicode="&#x3b4;" horiz-adv-x="664" 
d="M550 639h-237c49 -43 171 -142 205 -175c76 -73 109 -133 109 -218c0 -140 -136 -254 -296 -254c-164 0 -297 119 -297 264c0 125 118 234 250 234c31 0 48 -6 50 -6l-239 204v66h455v-115zM331 114c89 0 160 62 160 142c0 81 -72 131 -160 131s-160 -51 -160 -131
s72 -142 160 -142z" />
    <glyph glyph-name="epsilon" unicode="&#x3b5;" horiz-adv-x="581" 
d="M496 155l55 -92c-86 -43 -154 -71 -261 -71c-148 0 -252 40 -252 159c0 64 37 107 103 127c-52 25 -83 68 -83 117c0 124 100 158 242 158c91 0 170 -30 241 -64l-54 -87c-61 26 -117 42 -168 42c-75 0 -128 -19 -128 -65c0 -23 18 -60 97 -60h112v-86h-135
c-69 0 -91 -38 -91 -67c0 -36 42 -63 121 -63c82 0 126 18 201 52z" />
    <glyph glyph-name="pi" unicode="&#x3c0;" horiz-adv-x="644" 
d="M63 543h518v-543h-140v424h-239v-424h-139v543z" />
    <glyph glyph-name="mu" unicode="&#xb5;" horiz-adv-x="646" 
d="M443 543h139v-543h-139v33c-36 -26 -83 -41 -134 -41c-44 0 -82 16 -107 45v-210h-139v716h139v-301c0 -84 41 -125 118 -125c50 0 91 16 123 43v383z" />
    <glyph glyph-name="Omega" unicode="&#x2126;" horiz-adv-x="832" 
d="M788 374c0 -123 -73 -214 -148 -251h138v-123h-303v134c79 23 166 108 166 240c0 139 -101 215 -225 215c-125 0 -226 -76 -226 -215c0 -132 86 -217 166 -240v-134h-302v123h136c-74 37 -146 128 -146 251c0 235 166 339 372 339c205 0 372 -104 372 -339z" />
    <glyph glyph-name="Delta" unicode="&#x2206;" horiz-adv-x="763" 
d="M416 705l332 -705h-733l332 705h69zM381 488l-164 -365h329z" />
    <glyph glyph-name="uni0394" unicode="&#x394;" horiz-adv-x="763" 
d="M416 705l332 -705h-733l332 705h69zM381 488l-164 -365h329z" />
    <glyph glyph-name="uni03A9" unicode="&#x3a9;" horiz-adv-x="832" 
d="M788 374c0 -123 -73 -214 -148 -251h138v-123h-303v134c79 23 166 108 166 240c0 139 -101 215 -225 215c-125 0 -226 -76 -226 -215c0 -132 86 -217 166 -240v-134h-302v123h136c-74 37 -146 128 -146 251c0 235 166 339 372 339c205 0 372 -104 372 -339z" />
    <glyph glyph-name="uni037E" unicode="&#x37e;" horiz-adv-x="259" 
d="M128 381c-44 0 -79 36 -79 81s35 81 79 81s80 -36 80 -81s-36 -81 -80 -81zM128 154c46 0 80 -33 80 -96c0 -90 -36 -189 -166 -190l-20 60c54 2 87 29 92 65c-37 7 -65 39 -65 80c0 45 36 81 79 81z" />
    <glyph glyph-name="anoteleia" unicode="&#x387;" horiz-adv-x="246" 
d="M200 459c0 -46 -35 -82 -79 -82s-79 36 -79 82c0 45 35 81 79 81s79 -36 79 -81z" />
    <glyph glyph-name="onehalf" unicode="&#xbd;" horiz-adv-x="936" 
d="M704 74h160v-74h-319v37c73 104 237 128 237 219c0 45 -37 81 -82 81s-79 -39 -79 -81v-4h-76v9c0 90 73 155 157 155c85 0 159 -67 159 -155c0 -104 -89 -138 -157 -187zM623 701h102l-483 -701h-102zM206 705h38v-406h-85v322l-77 -17l-17 69z" />
    <glyph glyph-name="brokenbar" unicode="&#xa6;" horiz-adv-x="319" 
d="M106 415v383h107v-383h-107zM106 -127v383h107v-383h-107z" />
    <glyph glyph-name="Q" unicode="Q" 
d="M783 68l-66 -81l-83 70c-61 -42 -135 -65 -215 -65c-207 0 -375 161 -375 360s168 360 375 360s375 -161 375 -360c0 -85 -33 -162 -85 -222zM419 126c38 0 75 9 105 26l-46 39l66 81l54 -46c30 34 49 78 49 126c0 124 -102 226 -228 226c-127 0 -229 -102 -229 -226
c0 -125 102 -226 229 -226z" />
    <glyph glyph-name="notequal" unicode="&#x2260;" horiz-adv-x="639" 
d="M200 28h-101l65 128h-88v120h148l87 166h-235v120h295l69 133h100l-68 -133h89v-120h-149l-87 -166h236v-120h-295z" />
    <glyph glyph-name="infinity" unicode="&#x221e;" horiz-adv-x="862" 
d="M798 366c0 -121 -87 -190 -186 -190c-75 0 -128 39 -185 114c-55 -74 -110 -114 -184 -114c-106 0 -186 77 -186 190c0 122 86 191 186 191c74 0 129 -41 184 -115c57 75 110 115 185 115c106 0 186 -77 186 -191zM598 282c49 0 88 25 88 84c0 60 -39 85 -88 85
c-53 0 -82 -33 -120 -85c38 -51 67 -84 120 -84zM257 282c52 0 83 34 118 84c-35 50 -66 85 -118 85c-49 0 -89 -25 -89 -85c0 -59 40 -84 89 -84z" />
    <glyph glyph-name="plusminus" unicode="&#xb1;" horiz-adv-x="640" 
d="M574 499v-119h-195v-194h-116v194h-195v119h195v194h116v-194h195zM574 0h-506v119h506v-119z" />
    <glyph glyph-name="lessequal" unicode="&#x2264;" horiz-adv-x="628" 
d="M559 119v-119h-491v119h491zM559 725v-135l-304 -140l304 -138v-135l-491 240v67z" />
    <glyph glyph-name="greaterequal" unicode="&#x2265;" horiz-adv-x="627" 
d="M559 119v-119h-491v119h491zM68 177v135l304 138l-304 140v135l491 -241v-67z" />
    <glyph glyph-name="dotaccent" unicode="&#x2d9;" horiz-adv-x="379" 
d="M176 883c36 0 66 -30 66 -67s-30 -68 -66 -68c-37 0 -66 31 -66 68s29 67 66 67z" />
    <glyph glyph-name="breve" unicode="&#x2d8;" horiz-adv-x="500" 
d="M250 756c-101 0 -170 47 -178 148l84 8c10 -45 39 -70 94 -70s84 25 94 70l85 -8c-8 -101 -78 -148 -179 -148z" />
    <glyph glyph-name="uni2117" unicode="&#x2117;" horiz-adv-x="865" 
 />
    <glyph glyph-name="zeta" unicode="&#x3b6;" horiz-adv-x="545" 
d="M540 754v-86c-128 -93 -365 -301 -365 -443c0 -129 345 -52 345 -233c0 -130 -191 -178 -188 -177l-47 73c49 30 92 60 92 88c0 32 -58 38 -79 43c-117 27 -266 61 -266 194c0 142 168 322 323 426h-290v115h475z" />
    <glyph glyph-name="eta" unicode="&#x3b7;" horiz-adv-x="635" 
d="M347 553c159 0 232 -74 232 -250v-303h-139v303c0 84 -41 125 -118 125c-49 0 -89 -16 -120 -43v-385h-139v543h139v-34c40 28 90 44 145 44z" />
    <glyph glyph-name="theta" unicode="&#x3b8;" horiz-adv-x="648" 
d="M325 761c156 0 283 -148 283 -389s-127 -380 -283 -380s-283 139 -283 380s127 389 283 389zM325 105c92 0 149 106 151 209c-301 0 -302 0 -302 -1c0 -115 68 -208 151 -208zM325 647c-93 0 -150 -113 -151 -217c300 1 301 1 302 1c-1 115 -69 216 -151 216z" />
    <glyph glyph-name="iota" unicode="&#x3b9;" horiz-adv-x="272" 
d="M66 0v543h139v-543h-139z" />
    <glyph glyph-name="kappa" unicode="&#x3ba;" horiz-adv-x="606" 
d="M399 331l201 -331h-154l-139 222l-105 -101v-121h-139v543h139v-233l232 233h163z" />
    <glyph glyph-name="lambda" unicode="&#x3bb;" horiz-adv-x="604" 
d="M376 581l219 -581h-150l-128 380l-13 -12l-133 -368h-150l224 536l17 15c-27 63 -83 100 -147 100c-13 0 -40 -3 -40 -3v108s28 5 46 5c116 0 212 -64 255 -180z" />
    <glyph glyph-name="uni03BC" unicode="&#x3bc;" horiz-adv-x="646" 
d="M443 543h139v-543h-139v33c-36 -26 -83 -41 -134 -41c-44 0 -82 16 -107 45v-210h-139v716h139v-301c0 -84 41 -125 118 -125c50 0 91 16 123 43v383z" />
    <glyph glyph-name="nu" unicode="&#x3bd;" horiz-adv-x="619" 
d="M457 543h146l-261 -543h-65l-261 543h146l148 -308z" />
    <glyph glyph-name="xi" unicode="&#x3be;" horiz-adv-x="542" 
d="M528 754v-89c-151 -14 -294 -66 -294 -146c0 -82 130 -117 244 -117v-96c-185 -2 -296 -47 -296 -100c0 -127 344 -36 344 -215c0 -127 -178 -176 -175 -175l-55 72c45 28 85 57 85 84c0 18 -21 30 -52 36c-123 23 -295 42 -295 201c0 71 71 134 174 162
c-67 28 -113 76 -113 143c0 49 25 94 85 125h-129v115h477z" />
    <glyph glyph-name="omicron" unicode="&#x3bf;" horiz-adv-x="666" 
d="M332 553c164 0 297 -125 297 -281c0 -155 -133 -280 -297 -280c-163 0 -297 125 -297 280c0 156 134 281 297 281zM332 117c89 0 161 70 161 155c0 86 -72 156 -161 156c-88 0 -160 -70 -160 -156c0 -85 72 -155 160 -155z" />
    <glyph glyph-name="rho" unicode="&#x3c1;" horiz-adv-x="656" 
d="M332 553c152 0 288 -110 288 -281c0 -168 -123 -280 -275 -280c-58 0 -112 15 -158 41v-206h-139v463c0 151 126 263 284 263zM321 117c93 0 162 62 162 155c0 89 -65 156 -159 156c-51 0 -137 -35 -137 -123v-142c33 -29 81 -46 134 -46z" />
    <glyph glyph-name="uni03C2" unicode="&#x3c2;" horiz-adv-x="566" 
d="M411 76c48 -21 91 -47 91 -109c0 -81 -95 -147 -169 -163l-48 73c49 34 81 61 81 79c0 14 -9 29 -63 43c-139 36 -267 117 -267 276c0 157 139 278 294 278c86 0 166 -40 214 -110l-89 -83c-28 42 -74 68 -125 68c-85 0 -157 -68 -157 -153c0 -133 140 -148 238 -199z
" />
    <glyph glyph-name="sigma" unicode="&#x3c3;" horiz-adv-x="673" 
d="M648 543v-115h-114c60 -40 90 -89 90 -168c0 -141 -128 -268 -292 -268c-163 0 -297 125 -297 280c0 154 134 271 297 271h316zM332 117c89 0 161 70 161 155c0 84 -72 153 -161 153c-88 0 -160 -69 -160 -153c0 -85 72 -155 160 -155z" />
    <glyph glyph-name="tau" unicode="&#x3c4;" horiz-adv-x="518" 
d="M494 543v-115h-165v-428h-139v428h-167v115h471z" />
    <glyph glyph-name="upsilon" unicode="&#x3c5;" horiz-adv-x="625" 
d="M570 543v-324c0 -144 -124 -227 -258 -227c-124 0 -257 77 -257 227v324h139v-295c0 -83 36 -135 118 -135c87 0 118 58 118 135v295h140z" />
    <glyph glyph-name="phi" unicode="&#x3c6;" horiz-adv-x="833" 
d="M799 267c0 -154 -151 -275 -317 -275v-165h-131v165c-167 0 -316 121 -316 275c0 120 81 221 199 268l44 -104c-73 -24 -107 -92 -107 -160c0 -90 65 -167 176 -167h4v442c31 6 63 9 95 9c180 0 353 -79 353 -288zM482 442v-338h4c111 0 176 77 176 167
c0 101 -67 171 -176 171h-4z" />
    <glyph glyph-name="chi" unicode="&#x3c7;" horiz-adv-x="586" 
d="M294 160l-127 -160h-150l199 278l-197 265h156l119 -159l119 159h156l-197 -265l199 -278h-151z" />
    <glyph glyph-name="psi" unicode="&#x3c8;" horiz-adv-x="822" 
d="M628 543h140v-324c0 -140 -100 -227 -290 -227v-165h-134v165c-192 0 -289 90 -289 227v324h139v-295c0 -82 47 -133 145 -135h5v501h134v-501h5c101 0 145 48 145 135v295z" />
    <glyph glyph-name="omega" unicode="&#x3c9;" horiz-adv-x="874" 
d="M576 425l1 128c144 -4 260 -108 260 -281c0 -172 -89 -280 -238 -280c-88 0 -139 48 -163 107c-24 -59 -75 -107 -163 -107c-149 0 -238 108 -238 280c0 173 116 277 260 281v-128c-71 -14 -122 -71 -122 -153c0 -96 36 -155 109 -155c66 0 89 70 89 128v95h131v-95
c0 -58 22 -128 88 -128c73 0 110 59 110 155c0 82 -52 139 -124 153z" />
    <glyph glyph-name="hungarumlaut" unicode="&#x2dd;" horiz-adv-x="500" 
d="M148 930l118 -42l-120 -132h-95zM223 756l97 174l125 -44l-128 -130h-94z" />
    <glyph glyph-name="ring" unicode="&#x2da;" horiz-adv-x="500" 
d="M138 770c0 59 52 111 111 111s111 -50 111 -111s-52 -111 -111 -111s-111 52 -111 111zM249 713c32 0 57 26 57 58s-26 57 -57 57c-32 0 -57 -26 -57 -58c0 -31 25 -57 57 -57z" />
    <glyph glyph-name="caron" unicode="&#x2c7;" horiz-adv-x="500" 
d="M206 750l-146 156h95l93 -88l94 88h96l-147 -156h-85z" />
    <glyph glyph-name="ogonek" unicode="&#x2db;" horiz-adv-x="500" 
d="M319 -103l2 -67s-38 -4 -56 -4c-72 0 -110 30 -110 89c0 34 33 75 46 89l89 -4c-8 -11 -37 -42 -37 -64c0 -29 24 -40 51 -40c5 0 9 0 15 1z" />
    <glyph glyph-name="logicalnot" unicode="&#xac;" horiz-adv-x="594" 
d="M543 501v-293h-116v173h-390v120h506z" />
    <glyph glyph-name="ordfeminine" unicode="&#xaa;" horiz-adv-x="500" 
d="M340 695h100v-377h-100v23c-30 -19 -67 -31 -106 -31c-119 0 -189 96 -189 197s70 196 189 196c37 0 74 -11 106 -29v21zM340 430v153c-22 18 -54 30 -88 30c-68 0 -111 -50 -111 -106s43 -107 111 -107c35 0 65 11 88 30z" />
    <glyph glyph-name="ordmasculine" unicode="&#xba;" horiz-adv-x="507" 
d="M249 704c114 0 207 -88 207 -197c0 -108 -93 -196 -207 -196c-115 0 -208 88 -208 196c0 109 93 197 208 197zM249 401c60 0 110 48 110 106c0 59 -50 107 -110 107c-61 0 -110 -48 -110 -107c0 -58 49 -106 110 -106z" />
    <glyph glyph-name="onequarter" unicode="&#xbc;" horiz-adv-x="893" 
d="M206 705h38v-406h-85v322l-77 -17l-17 69zM776 157h64v-72h-64v-85h-82v85h-208l-17 41l242 281h65v-250zM694 157v122l-105 -122h105zM622 701h102l-483 -701h-102z" />
    <glyph glyph-name="threequarters" unicode="&#xbe;" horiz-adv-x="905" 
d="M54 704h290v-38l-103 -129c64 -14 111 -48 111 -113c0 -82 -65 -131 -163 -131c-64 0 -102 6 -155 30l31 67c44 -19 81 -23 127 -23c40 0 77 20 77 58c0 24 -21 59 -91 59h-32l-15 35l90 112h-167v73zM641 701h102l-483 -701h-102zM794 157h64v-72h-64v-85h-82v85h-208
l-17 41l242 281h65v-250zM712 157v122l-105 -122h105z" />
    <glyph glyph-name="minus" unicode="&#x2212;" horiz-adv-x="528" 
d="M481 392v-119h-436v119h436z" />
    <glyph glyph-name="multiply" unicode="&#xd7;" horiz-adv-x="616" 
d="M394 316l175 -174l-81 -84l-175 173l-175 -173l-82 84l175 174l-175 174l82 84l175 -174l175 174l81 -84z" />
    <glyph glyph-name="divide" unicode="&#xf7;" horiz-adv-x="526" 
d="M485 393v-119h-442v119h442zM259 491c-40 0 -73 33 -73 74c0 40 33 74 73 74s72 -34 72 -74c0 -41 -32 -74 -72 -74zM259 21c-40 0 -73 33 -73 74c0 40 33 74 73 74s72 -34 72 -74c0 -41 -32 -74 -72 -74z" />
    <glyph glyph-name="approxequal" unicode="&#x2248;" horiz-adv-x="626" 
d="M432 255c49 0 86 23 115 49l38 -107c-30 -28 -76 -60 -141 -60c-76 0 -140 56 -226 56c-55 0 -104 -26 -131 -44l-37 102c20 15 83 59 155 59c91 0 148 -55 227 -55zM432 540c49 0 86 24 115 50l38 -107c-30 -29 -76 -60 -141 -60c-76 0 -140 55 -226 55
c-55 0 -104 -25 -131 -43l-37 101c20 15 83 60 155 60c91 0 148 -56 227 -56z" />
    <glyph glyph-name="partialdiff" unicode="&#x2202;" horiz-adv-x="662" 
d="M300 456c92 0 161 -29 180 -59c-10 147 -86 193 -191 193c-67 0 -131 -23 -149 -29l-59 110c56 27 137 42 242 42c157 0 297 -108 297 -404c0 -188 -127 -318 -284 -318c-160 0 -290 89 -290 239c0 162 138 226 254 226zM333 352c-81 0 -147 -46 -147 -120
c0 -72 67 -119 150 -119c75 0 140 53 140 120c0 72 -66 119 -143 119z" />
    <glyph glyph-name="summation" unicode="&#x2211;" horiz-adv-x="685" 
d="M61 705h575v-124h-370c72 -104 145 -205 216 -309l-215 -309h369v-124h-575v65l258 368l-258 368v65z" />
    <glyph glyph-name="product" unicode="&#x220f;" horiz-adv-x="752" 
d="M80 -161v866h603v-866h-140v743h-323v-743h-140z" />
    <glyph glyph-name="integral" unicode="&#x222b;" horiz-adv-x="488" 
d="M471 742l-15 -103c-15 1 -27 1 -38 1c-72 0 -76 -23 -91 -118l-81 -511c-22 -137 -88 -198 -177 -198c-29 0 -52 3 -74 7c6 35 11 76 16 111h9c73 0 77 24 92 118l81 511c22 137 88 197 174 197c63 0 104 -15 104 -15z" />
    <glyph glyph-name="radical" unicode="&#x221a;" horiz-adv-x="832" 
d="M486 224l327 691h132l-432 -915h-68l-259 557h-150v114h254z" />
    <glyph glyph-name="lozenge" unicode="&#x25ca;" horiz-adv-x="495" 
d="M220 754h50l187 -377l-187 -377h-50l-186 377zM161 377l85 -165l84 165l-84 165z" />
    <glyph glyph-name="Agrave" unicode="&#xc0;" horiz-adv-x="768" 
d="M605 0l-64 143h-315l-63 -143h-151l336 705h71l337 -705h-151zM383 495l-106 -233h213zM340 750l-185 164l151 13l120 -177h-86z" />
    <glyph glyph-name="Adieresis" unicode="&#xc4;" horiz-adv-x="768" 
d="M605 0l-64 143h-315l-63 -143h-151l336 705h71l337 -705h-151zM383 495l-106 -233h213zM481 883c37 0 66 -30 66 -67s-29 -68 -66 -68c-36 0 -66 31 -66 68s30 67 66 67zM286 883c36 0 66 -30 66 -67s-30 -68 -66 -68c-37 0 -67 31 -67 68s30 67 67 67z" />
    <glyph glyph-name="Egrave" unicode="&#xc8;" horiz-adv-x="656" 
d="M212 124h402v-124h-541v705h520v-124h-381v-179h319v-120h-319v-158zM294 750l-185 164l151 13l120 -177h-86z" />
    <glyph glyph-name="Edieresis" unicode="&#xcb;" horiz-adv-x="656" 
d="M212 124h402v-124h-541v705h520v-124h-381v-179h319v-120h-319v-158zM432 883c37 0 66 -30 66 -67s-29 -68 -66 -68c-36 0 -66 31 -66 68s30 67 66 67zM237 883c36 0 66 -30 66 -67s-30 -68 -66 -68c-37 0 -67 31 -67 68s30 67 67 67z" />
    <glyph glyph-name="Aring" unicode="&#xc5;" horiz-adv-x="768" 
d="M272 770c0 59 52 111 111 111s111 -50 111 -111c0 -42 -25 -79 -60 -98l322 -672h-151l-64 143h-315l-63 -143h-151l320 672c-35 19 -60 57 -60 98zM383 495l-106 -233h213zM383 713c32 0 57 26 57 58s-26 57 -57 57c-32 0 -57 -26 -57 -58c0 -31 25 -57 57 -57z" />
    <glyph glyph-name="Ccedilla" unicode="&#xc7;" horiz-adv-x="742" 
d="M321 -78l60 72c-188 17 -336 170 -336 358c0 199 167 361 372 361c118 0 222 -53 291 -135l-111 -94c-40 57 -106 93 -180 93c-123 0 -224 -90 -224 -225c0 -133 101 -225 224 -225c74 0 140 36 180 93l111 -94c-59 -70 -143 -118 -240 -130l-22 -50c10 0 33 -19 33 -49
c0 -42 -36 -85 -138 -85c-21 0 -54 3 -54 3l-5 48c11 -1 26 -2 39 -2c42 0 69 13 69 34c0 19 -32 27 -69 27z" />
    <glyph glyph-name="Eacute" unicode="&#xc9;" horiz-adv-x="656" 
d="M212 124h402v-124h-541v705h520v-124h-381v-179h319v-120h-319v-158zM564 914l-185 -164h-86l120 177z" />
    <glyph glyph-name="Ntilde" unicode="&#xd1;" horiz-adv-x="780" 
d="M563 705h144v-705h-70l-421 444v-444h-143v705h70l420 -444v444zM248 740l-64 7c3 98 52 155 118 155c61 0 119 -42 159 -42c29 0 52 25 64 63l64 -9c-4 -95 -55 -154 -115 -154s-122 42 -159 42c-34 0 -55 -25 -67 -62z" />
    <glyph glyph-name="Odieresis" unicode="&#xd6;" 
d="M419 712c208 0 375 -161 375 -360s-167 -360 -375 -360c-207 0 -375 161 -375 360s168 360 375 360zM419 126c126 0 229 101 229 226c0 124 -103 226 -229 226s-228 -102 -228 -226c0 -125 102 -226 228 -226zM516 883c37 0 66 -30 66 -67s-29 -68 -66 -68
c-36 0 -66 31 -66 68s30 67 66 67zM321 883c36 0 66 -30 66 -67s-30 -68 -66 -68c-37 0 -67 31 -67 68s30 67 67 67z" />
    <glyph glyph-name="Udieresis" unicode="&#xdc;" horiz-adv-x="757" 
d="M691 705v-422c0 -162 -108 -291 -313 -291c-204 0 -311 128 -311 291v422h140v-385c0 -133 59 -196 171 -196c114 0 173 64 173 196v385h140zM477 883c37 0 66 -30 66 -67s-29 -68 -66 -68c-36 0 -66 31 -66 68s30 67 66 67zM282 883c36 0 66 -30 66 -67s-30 -68 -66 -68
c-37 0 -67 31 -67 68s30 67 67 67z" />
    <glyph glyph-name="aacute" unicode="&#xe1;" horiz-adv-x="670" 
d="M469 543h139v-543h-139v40c-45 -30 -99 -48 -159 -48c-170 0 -270 137 -270 281c0 145 100 281 270 281c57 0 113 -18 159 -45v34zM469 163v218c-34 29 -82 47 -134 47c-99 0 -161 -74 -161 -155c0 -82 63 -156 161 -156c53 0 100 17 134 46zM565 773l-185 -164h-86
l120 177z" />
    <glyph glyph-name="agrave" unicode="&#xe0;" horiz-adv-x="670" 
d="M469 543h139v-543h-139v40c-45 -30 -99 -48 -159 -48c-170 0 -270 137 -270 281c0 145 100 281 270 281c57 0 113 -18 159 -45v34zM469 163v218c-34 29 -82 47 -134 47c-99 0 -161 -74 -161 -155c0 -82 63 -156 161 -156c53 0 100 17 134 46zM295 609l-185 164l151 13
l120 -177h-86z" />
    <glyph glyph-name="acircumflex" unicode="&#xe2;" horiz-adv-x="670" 
d="M469 543h139v-543h-139v40c-45 -30 -99 -48 -159 -48c-170 0 -270 137 -270 281c0 145 100 281 270 281c57 0 113 -18 159 -45v34zM469 163v218c-34 29 -82 47 -134 47c-99 0 -161 -74 -161 -155c0 -82 63 -156 161 -156c53 0 100 17 134 46zM150 609l146 156h85
l147 -156h-96l-94 88l-93 -88h-95z" />
    <glyph glyph-name="adieresis" unicode="&#xe4;" horiz-adv-x="670" 
d="M469 543h139v-543h-139v40c-45 -30 -99 -48 -159 -48c-170 0 -270 137 -270 281c0 145 100 281 270 281c57 0 113 -18 159 -45v34zM469 163v218c-34 29 -82 47 -134 47c-99 0 -161 -74 -161 -155c0 -82 63 -156 161 -156c53 0 100 17 134 46zM436 742c37 0 66 -30 66 -67
s-29 -68 -66 -68c-36 0 -66 31 -66 68s30 67 66 67zM241 742c36 0 66 -30 66 -67s-30 -68 -66 -68c-37 0 -67 31 -67 68s30 67 67 67z" />
    <glyph glyph-name="atilde" unicode="&#xe3;" horiz-adv-x="670" 
d="M469 543h139v-543h-139v40c-45 -30 -99 -48 -159 -48c-170 0 -270 137 -270 281c0 145 100 281 270 281c57 0 113 -18 159 -45v34zM469 163v218c-34 29 -82 47 -134 47c-99 0 -161 -74 -161 -155c0 -82 63 -156 161 -156c53 0 100 17 134 46zM201 599l-64 7
c3 98 52 155 118 155c61 0 119 -42 159 -42c29 0 52 25 64 63l64 -9c-4 -95 -55 -154 -115 -154s-122 42 -159 42c-34 0 -55 -25 -67 -62z" />
    <glyph glyph-name="aring" unicode="&#xe5;" horiz-adv-x="670" 
d="M469 543h139v-543h-139v40c-45 -30 -99 -48 -159 -48c-170 0 -270 137 -270 281c0 145 100 281 270 281c57 0 113 -18 159 -45v34zM469 163v218c-34 29 -82 47 -134 47c-99 0 -161 -74 -161 -155c0 -82 63 -156 161 -156c53 0 100 17 134 46zM227 721
c0 59 52 111 111 111s111 -50 111 -111s-52 -111 -111 -111s-111 52 -111 111zM338 664c32 0 57 26 57 58s-26 57 -57 57c-32 0 -57 -26 -57 -58c0 -31 25 -57 57 -57z" />
    <glyph glyph-name="ccedilla" unicode="&#xe7;" horiz-adv-x="576" 
d="M236 -78l61 72c-147 16 -261 134 -261 278c0 156 133 281 297 281c87 0 163 -42 212 -108l-90 -83c-27 40 -72 66 -122 66c-88 0 -160 -70 -160 -156c0 -85 72 -155 160 -155c50 0 95 26 122 67l88 -83c-39 -53 -95 -90 -159 -103l-23 -52c10 0 33 -19 33 -49
c0 -42 -36 -85 -138 -85c-21 0 -54 3 -54 3l-5 48c11 -1 26 -2 39 -2c42 0 69 13 69 34c0 19 -32 27 -69 27z" />
    <glyph glyph-name="egrave" unicode="&#xe8;" horiz-adv-x="615" 
d="M578 232h-402c15 -71 72 -121 155 -121c57 0 110 26 140 67l89 -74c-50 -68 -139 -112 -245 -112c-164 0 -278 125 -278 280c0 156 114 281 278 281c167 0 264 -121 264 -290c0 -11 -1 -22 -1 -31zM315 442c-73 0 -125 -54 -138 -121h269c-5 62 -38 121 -131 121z
M273 609l-185 164l151 13l120 -177h-86z" />
    <glyph glyph-name="ecircumflex" unicode="&#xea;" horiz-adv-x="615" 
d="M578 232h-402c15 -71 72 -121 155 -121c57 0 110 26 140 67l89 -74c-50 -68 -139 -112 -245 -112c-164 0 -278 125 -278 280c0 156 114 281 278 281c167 0 264 -121 264 -290c0 -11 -1 -22 -1 -31zM315 442c-73 0 -125 -54 -138 -121h269c-5 62 -38 121 -131 121z
M125 609l146 156h85l147 -156h-96l-94 88l-93 -88h-95z" />
    <glyph glyph-name="edieresis" unicode="&#xeb;" horiz-adv-x="615" 
d="M578 232h-402c15 -71 72 -121 155 -121c57 0 110 26 140 67l89 -74c-50 -68 -139 -112 -245 -112c-164 0 -278 125 -278 280c0 156 114 281 278 281c167 0 264 -121 264 -290c0 -11 -1 -22 -1 -31zM315 442c-73 0 -125 -54 -138 -121h269c-5 62 -38 121 -131 121z
M411 742c37 0 66 -30 66 -67s-29 -68 -66 -68c-36 0 -66 31 -66 68s30 67 66 67zM216 742c36 0 66 -30 66 -67s-30 -68 -66 -68c-37 0 -67 31 -67 68s30 67 67 67z" />
    <glyph glyph-name="eacute" unicode="&#xe9;" horiz-adv-x="615" 
d="M578 232h-402c15 -71 72 -121 155 -121c57 0 110 26 140 67l89 -74c-50 -68 -139 -112 -245 -112c-164 0 -278 125 -278 280c0 156 114 281 278 281c167 0 264 -121 264 -290c0 -11 -1 -22 -1 -31zM315 442c-73 0 -125 -54 -138 -121h269c-5 62 -38 121 -131 121z
M543 773l-185 -164h-86l120 177z" />
    <glyph glyph-name="igrave" unicode="&#xec;" horiz-adv-x="272" 
d="M96 599l-185 164l151 13l120 -177h-86zM66 0v543h139v-543h-139z" />
    <glyph glyph-name="icircumflex" unicode="&#xee;" horiz-adv-x="272" 
d="M66 0v543h139v-543h-139zM-51 599l146 156h85l147 -156h-96l-94 88l-93 -88h-95z" />
    <glyph glyph-name="idieresis" unicode="&#xef;" horiz-adv-x="272" 
d="M235 732c37 0 66 -30 66 -67s-29 -68 -66 -68c-36 0 -66 31 -66 68s30 67 66 67zM40 732c36 0 66 -30 66 -67s-30 -68 -66 -68c-37 0 -67 31 -67 68s30 67 67 67zM66 0v543h139v-543h-139z" />
    <glyph glyph-name="iacute" unicode="&#xed;" horiz-adv-x="272" 
d="M367 763l-185 -164h-86l120 177zM66 0v543h139v-543h-139z" />
    <glyph glyph-name="ntilde" unicode="&#xf1;" horiz-adv-x="636" 
d="M347 553c159 0 232 -74 232 -250v-303h-139v303c0 84 -41 125 -118 125c-49 0 -89 -16 -120 -43v-385h-139v543h139v-34c40 28 90 44 145 44zM179 589l-64 7c3 98 52 155 118 155c61 0 119 -42 159 -42c29 0 52 25 64 63l64 -9c-4 -95 -55 -154 -115 -154
s-122 42 -159 42c-34 0 -55 -25 -67 -62z" />
    <glyph glyph-name="ograve" unicode="&#xf2;" horiz-adv-x="666" 
d="M332 553c164 0 297 -125 297 -281c0 -155 -133 -280 -297 -280s-297 125 -297 280c0 156 133 281 297 281zM332 117c89 0 160 70 160 155c0 86 -71 156 -160 156c-88 0 -160 -70 -160 -156c0 -85 72 -155 160 -155zM290 599l-185 164l151 13l120 -177h-86z" />
    <glyph glyph-name="ocircumflex" unicode="&#xf4;" horiz-adv-x="666" 
d="M332 553c164 0 297 -125 297 -281c0 -155 -133 -280 -297 -280s-297 125 -297 280c0 156 133 281 297 281zM332 117c89 0 160 70 160 155c0 86 -71 156 -160 156c-88 0 -160 -70 -160 -156c0 -85 72 -155 160 -155zM143 599l146 156h85l147 -156h-96l-94 88l-93 -88h-95z
" />
    <glyph glyph-name="otilde" unicode="&#xf5;" horiz-adv-x="666" 
d="M332 553c164 0 297 -125 297 -281c0 -155 -133 -280 -297 -280s-297 125 -297 280c0 156 133 281 297 281zM332 117c89 0 160 70 160 155c0 86 -71 156 -160 156c-88 0 -160 -70 -160 -156c0 -85 72 -155 160 -155zM194 589l-64 7c3 98 52 155 118 155
c61 0 119 -42 159 -42c29 0 52 25 64 63l64 -9c-4 -95 -55 -154 -115 -154s-122 42 -159 42c-34 0 -55 -25 -67 -62z" />
    <glyph glyph-name="odieresis" unicode="&#xf6;" horiz-adv-x="666" 
d="M332 553c164 0 297 -125 297 -281c0 -155 -133 -280 -297 -280s-297 125 -297 280c0 156 133 281 297 281zM332 117c89 0 160 70 160 155c0 86 -71 156 -160 156c-88 0 -160 -70 -160 -156c0 -85 72 -155 160 -155zM429 732c37 0 66 -30 66 -67s-29 -68 -66 -68
c-36 0 -66 31 -66 68s30 67 66 67zM234 732c36 0 66 -30 66 -67s-30 -68 -66 -68c-37 0 -67 31 -67 68s30 67 67 67z" />
    <glyph glyph-name="oacute" unicode="&#xf3;" horiz-adv-x="666" 
d="M332 553c164 0 297 -125 297 -281c0 -155 -133 -280 -297 -280s-297 125 -297 280c0 156 133 281 297 281zM332 117c89 0 160 70 160 155c0 86 -71 156 -160 156c-88 0 -160 -70 -160 -156c0 -85 72 -155 160 -155zM560 763l-185 -164h-86l120 177z" />
    <glyph glyph-name="ugrave" unicode="&#xf9;" horiz-adv-x="639" 
d="M437 543h139v-543h-139v36c-41 -28 -92 -44 -148 -44c-159 0 -232 74 -232 250v301h139v-301c0 -84 41 -125 118 -125c50 0 91 16 123 43v383zM279 599l-185 164l151 13l120 -177h-86z" />
    <glyph glyph-name="ucircumflex" unicode="&#xfb;" horiz-adv-x="639" 
d="M437 543h139v-543h-139v36c-41 -28 -92 -44 -148 -44c-159 0 -232 74 -232 250v301h139v-301c0 -84 41 -125 118 -125c50 0 91 16 123 43v383zM128 599l146 156h85l147 -156h-96l-94 88l-93 -88h-95z" />
    <glyph glyph-name="udieresis" unicode="&#xfc;" horiz-adv-x="639" 
d="M437 543h139v-543h-139v36c-41 -28 -92 -44 -148 -44c-159 0 -232 74 -232 250v301h139v-301c0 -84 41 -125 118 -125c50 0 91 16 123 43v383zM414 732c37 0 66 -30 66 -67s-29 -68 -66 -68c-36 0 -66 31 -66 68s30 67 66 67zM219 732c36 0 66 -30 66 -67
s-30 -68 -66 -68c-37 0 -67 31 -67 68s30 67 67 67z" />
    <glyph glyph-name="uacute" unicode="&#xfa;" horiz-adv-x="639" 
d="M437 543h139v-543h-139v36c-41 -28 -92 -44 -148 -44c-159 0 -232 74 -232 250v301h139v-301c0 -84 41 -125 118 -125c50 0 91 16 123 43v383zM549 763l-185 -164h-86l120 177z" />
    <glyph glyph-name="Atilde" unicode="&#xc3;" horiz-adv-x="768" 
d="M605 0l-64 143h-315l-63 -143h-151l336 705h71l337 -705h-151zM383 495l-106 -233h213zM246 740l-64 7c3 98 52 155 118 155c61 0 119 -42 159 -42c29 0 52 25 64 63l64 -9c-4 -95 -55 -154 -115 -154s-122 42 -159 42c-34 0 -55 -25 -67 -62z" />
    <glyph glyph-name="Otilde" unicode="&#xd5;" 
d="M419 712c208 0 375 -161 375 -360s-167 -360 -375 -360c-207 0 -375 161 -375 360s168 360 375 360zM419 126c126 0 229 101 229 226c0 124 -103 226 -229 226s-228 -102 -228 -226c0 -125 102 -226 228 -226zM280 740l-64 7c3 98 52 155 118 155c61 0 119 -42 159 -42
c29 0 52 25 64 63l64 -9c-4 -95 -55 -154 -115 -154s-122 42 -159 42c-34 0 -55 -25 -67 -62z" />
    <glyph glyph-name="Acircumflex" unicode="&#xc2;" horiz-adv-x="768" 
d="M605 0l-64 143h-315l-63 -143h-151l336 705h71l337 -705h-151zM383 495l-106 -233h213zM195 750l146 156h85l147 -156h-96l-94 88l-93 -88h-95z" />
    <glyph glyph-name="Ecircumflex" unicode="&#xca;" horiz-adv-x="656" 
d="M212 124h402v-124h-541v705h520v-124h-381v-179h319v-120h-319v-158zM146 750l146 156h85l147 -156h-96l-94 88l-93 -88h-95z" />
    <glyph glyph-name="Aacute" unicode="&#xc1;" horiz-adv-x="768" 
d="M605 0l-64 143h-315l-63 -143h-151l336 705h71l337 -705h-151zM383 495l-106 -233h213zM614 914l-185 -164h-86l120 177z" />
    <glyph glyph-name="Igrave" unicode="&#xcc;" horiz-adv-x="295" 
d="M220 705v-705h-144v705h144zM108 763l-185 164l151 13l120 -177h-86z" />
    <glyph glyph-name="Icircumflex" unicode="&#xce;" horiz-adv-x="295" 
d="M220 705v-705h-144v705h144zM-39 763l146 156h85l147 -156h-96l-94 88l-93 -88h-95z" />
    <glyph glyph-name="Idieresis" unicode="&#xcf;" horiz-adv-x="295" 
d="M220 705v-705h-144v705h144zM247 896c37 0 66 -30 66 -67s-29 -68 -66 -68c-36 0 -66 31 -66 68s30 67 66 67zM52 896c36 0 66 -30 66 -67s-30 -68 -66 -68c-37 0 -67 31 -67 68s30 67 67 67z" />
    <glyph glyph-name="Iacute" unicode="&#xcd;" horiz-adv-x="295" 
d="M220 705v-705h-144v705h144zM379 927l-185 -164h-86l120 177z" />
    <glyph glyph-name="Ograve" unicode="&#xd2;" 
d="M419 712c208 0 375 -161 375 -360s-167 -360 -375 -360c-207 0 -375 161 -375 360s168 360 375 360zM419 126c126 0 229 101 229 226c0 124 -103 226 -229 226s-228 -102 -228 -226c0 -125 102 -226 228 -226zM375 750l-185 164l151 13l120 -177h-86z" />
    <glyph glyph-name="Ocircumflex" unicode="&#xd4;" 
d="M419 712c208 0 375 -161 375 -360s-167 -360 -375 -360c-207 0 -375 161 -375 360s168 360 375 360zM419 126c126 0 229 101 229 226c0 124 -103 226 -229 226s-228 -102 -228 -226c0 -125 102 -226 228 -226zM228 750l146 156h85l147 -156h-96l-94 88l-93 -88h-95z" />
    <glyph glyph-name="Oacute" unicode="&#xd3;" 
d="M419 712c208 0 375 -161 375 -360s-167 -360 -375 -360c-207 0 -375 161 -375 360s168 360 375 360zM419 126c126 0 229 101 229 226c0 124 -103 226 -229 226s-228 -102 -228 -226c0 -125 102 -226 228 -226zM645 914l-185 -164h-86l120 177z" />
    <glyph glyph-name="Ugrave" unicode="&#xd9;" horiz-adv-x="757" 
d="M691 705v-422c0 -162 -108 -291 -313 -291c-204 0 -311 128 -311 291v422h140v-385c0 -133 59 -196 171 -196c114 0 173 64 173 196v385h140zM338 750l-185 164l151 13l120 -177h-86z" />
    <glyph glyph-name="Ucircumflex" unicode="&#xdb;" horiz-adv-x="757" 
d="M691 705v-422c0 -162 -108 -291 -313 -291c-204 0 -311 128 -311 291v422h140v-385c0 -133 59 -196 171 -196c114 0 173 64 173 196v385h140zM191 750l146 156h85l147 -156h-96l-94 88l-93 -88h-95z" />
    <glyph glyph-name="Uacute" unicode="&#xda;" horiz-adv-x="757" 
d="M691 705v-422c0 -162 -108 -291 -313 -291c-204 0 -311 128 -311 291v422h140v-385c0 -133 59 -196 171 -196c114 0 173 64 173 196v385h140zM609 914l-185 -164h-86l120 177z" />
    <glyph glyph-name="Yacute" unicode="&#xdd;" horiz-adv-x="699" 
d="M528 705h164l-271 -466v-239h-144v239l-270 466h163l180 -311zM581 914l-185 -164h-86l120 177z" />
    <glyph glyph-name="Ydieresis" unicode="&#x178;" horiz-adv-x="699" 
d="M528 705h164l-271 -466v-239h-144v239l-270 466h163l180 -311zM448 883c37 0 66 -30 66 -67s-29 -68 -66 -68c-36 0 -66 31 -66 68s30 67 66 67zM253 883c36 0 66 -30 66 -67s-30 -68 -66 -68c-37 0 -67 31 -67 68s30 67 67 67z" />
    <glyph glyph-name="ydieresis" unicode="&#xff;" horiz-adv-x="620" 
d="M457 543h143l-224 -572c-48 -123 -176 -159 -290 -159c-18 0 -34 0 -49 1l17 105h15c75 0 142 19 173 82h-12l-212 543h146l143 -369h10zM410 732c37 0 66 -30 66 -67s-29 -68 -66 -68c-36 0 -66 31 -66 68s30 67 66 67zM215 732c36 0 66 -30 66 -67s-30 -68 -66 -68
c-37 0 -67 31 -67 68s30 67 67 67z" />
    <glyph glyph-name="yacute" unicode="&#xfd;" horiz-adv-x="620" 
d="M457 543h143l-224 -572c-48 -123 -176 -159 -290 -159c-18 0 -34 0 -49 1l17 105h15c75 0 142 19 173 82h-12l-212 543h146l143 -369h10zM542 763l-185 -164h-86l120 177z" />
    <glyph glyph-name="Alphatonos" unicode="&#x386;" horiz-adv-x="768" 
d="M605 0l-64 143h-315l-63 -143h-151l336 705h71l337 -705h-151zM383 495l-106 -233h213zM265 706l-188 -164h-87l125 176z" />
    <glyph glyph-name="Epsilontonos" unicode="&#x388;" horiz-adv-x="656" 
d="M27 706l-188 -164h-87l125 176zM212 124h402v-124h-541v705h520v-124h-381v-179h319v-120h-319v-158z" />
    <glyph glyph-name="Etatonos" unicode="&#x389;" horiz-adv-x="750" 
d="M537 705h140v-705h-140v239h-325v-239h-139v705h139v-343h325v343zM27 706l-188 -164h-87l125 176z" />
    <glyph glyph-name="Iotatonos" unicode="&#x38a;" horiz-adv-x="295" 
d="M220 705v-705h-144v705h144zM27 706l-188 -164h-87l125 176z" />
    <glyph glyph-name="Omicrontonos" unicode="&#x38c;" 
d="M119 706l-188 -164h-87l125 176zM419 712c208 0 375 -161 375 -360s-167 -360 -375 -360c-207 0 -375 161 -375 360s168 360 375 360zM419 126c126 0 229 101 229 226c0 124 -103 226 -229 226s-228 -102 -228 -226c0 -125 102 -226 228 -226z" />
    <glyph glyph-name="Upsilontonos" unicode="&#x38e;" horiz-adv-x="699" 
d="M-13 706l-188 -164h-87l125 176zM528 705h164l-271 -466v-239h-144v239l-270 466h163l180 -311z" />
    <glyph glyph-name="Omegatonos" unicode="&#x38f;" horiz-adv-x="832" 
d="M788 374c0 -123 -73 -214 -148 -251h138v-123h-303v134c79 23 166 108 166 240c0 139 -101 215 -225 215c-125 0 -226 -76 -226 -215c0 -132 86 -217 166 -240v-134h-302v123h136c-74 37 -146 128 -146 251c0 235 166 339 372 339c205 0 372 -104 372 -339zM115 706
l-188 -164h-87l125 176z" />
    <glyph glyph-name="iotadieresistonos" unicode="&#x390;" horiz-adv-x="272" 
d="M66 0v543h139v-543h-139zM-34 717c36 0 65 -30 65 -67s-29 -67 -65 -67c-37 0 -67 30 -67 67s30 67 67 67zM316 717c36 0 66 -30 66 -67s-30 -67 -66 -67c-37 0 -66 30 -66 67s29 67 66 67zM82 582l54 205l105 -25l-86 -180h-73z" />
    <glyph glyph-name="iotatonos" unicode="&#x3af;" horiz-adv-x="272" 
d="M66 0v543h139v-543h-139zM356 758l-188 -164h-87l125 176z" />
    <glyph glyph-name="Iotadieresis" unicode="&#x3aa;" horiz-adv-x="295" 
d="M220 705v-705h-144v705h144zM247 896c37 0 66 -30 66 -67s-29 -68 -66 -68c-36 0 -66 31 -66 68s30 67 66 67zM52 896c36 0 66 -30 66 -67s-30 -68 -66 -68c-37 0 -67 31 -67 68s30 67 67 67z" />
    <glyph glyph-name="Upsilondieresis" unicode="&#x3ab;" horiz-adv-x="699" 
d="M528 705h164l-271 -466v-239h-144v239l-270 466h163l180 -311zM447 896c37 0 66 -30 66 -67s-29 -68 -66 -68c-36 0 -66 31 -66 68s30 67 66 67zM252 896c36 0 66 -30 66 -67s-30 -68 -66 -68c-37 0 -67 31 -67 68s30 67 67 67z" />
    <glyph glyph-name="alphatonos" unicode="&#x3ac;" horiz-adv-x="675" 
d="M473 543h140v-543h-140v40c-44 -30 -98 -48 -158 -48c-151 0 -275 113 -275 281c0 169 124 281 275 281c57 0 113 -18 158 -45v34zM473 163v218c-33 29 -81 47 -133 47c-94 0 -162 -67 -162 -155c0 -93 68 -156 162 -156c53 0 100 17 133 46zM535 758l-188 -164h-87
l125 176z" />
    <glyph glyph-name="epsilontonos" unicode="&#x3ad;" horiz-adv-x="581" 
d="M525 758l-188 -164h-87l125 176zM496 155l55 -92c-86 -43 -154 -71 -261 -71c-148 0 -252 40 -252 159c0 64 37 107 103 127c-52 25 -83 68 -83 117c0 124 100 158 242 158c91 0 170 -30 241 -64l-54 -87c-61 26 -117 42 -168 42c-75 0 -128 -19 -128 -65
c0 -23 18 -60 97 -60h112v-86h-135c-69 0 -91 -38 -91 -67c0 -36 42 -63 121 -63c82 0 126 18 201 52z" />
    <glyph glyph-name="etatonos" unicode="&#x3ae;" horiz-adv-x="635" 
d="M347 553c159 0 232 -74 232 -250v-303h-139v303c0 84 -41 125 -118 125c-49 0 -89 -16 -120 -43v-385h-139v543h139v-34c40 28 90 44 145 44zM535 758l-188 -164h-87l125 176z" />
    <glyph glyph-name="iotadieresis" unicode="&#x3ca;" horiz-adv-x="272" 
d="M66 0v543h139v-543h-139zM234 732c37 0 66 -30 66 -67s-29 -68 -66 -68c-36 0 -66 31 -66 68s30 67 66 67zM39 732c36 0 66 -30 66 -67s-30 -68 -66 -68c-37 0 -67 31 -67 68s30 67 67 67z" />
    <glyph glyph-name="omicrontonos" unicode="&#x3cc;" horiz-adv-x="666" 
d="M552 758l-188 -164h-87l125 176zM332 553c164 0 297 -125 297 -281c0 -155 -133 -280 -297 -280c-163 0 -297 125 -297 280c0 156 134 281 297 281zM332 117c89 0 161 70 161 155c0 86 -72 156 -161 156c-88 0 -160 -70 -160 -156c0 -85 72 -155 160 -155z" />
    <glyph glyph-name="upsilontonos" unicode="&#x3cd;" horiz-adv-x="625" 
d="M529 758l-188 -164h-87l125 176zM570 543v-324c0 -144 -124 -227 -258 -227c-124 0 -257 77 -257 227v324h139v-295c0 -83 36 -135 118 -135c87 0 118 58 118 135v295h140z" />
    <glyph glyph-name="omegatonos" unicode="&#x3ce;" horiz-adv-x="874" 
d="M576 425l1 128c144 -4 260 -108 260 -281c0 -172 -89 -280 -238 -280c-88 0 -139 48 -163 107c-24 -59 -75 -107 -163 -107c-149 0 -238 108 -238 280c0 173 116 277 260 281v-128c-71 -14 -122 -71 -122 -153c0 -96 36 -155 109 -155c66 0 89 70 89 128v95h131v-95
c0 -58 22 -128 88 -128c73 0 110 59 110 155c0 82 -52 139 -124 153zM654 758l-188 -164h-87l125 176z" />
    <glyph glyph-name="upsilondieresis" unicode="&#x3cb;" horiz-adv-x="625" 
d="M570 543v-324c0 -144 -124 -227 -258 -227c-124 0 -257 77 -257 227v324h139v-295c0 -83 36 -135 118 -135c87 0 118 58 118 135v295h140zM409 732c37 0 66 -30 66 -67s-29 -68 -66 -68c-36 0 -66 31 -66 68s30 67 66 67zM214 732c36 0 66 -30 66 -67s-30 -68 -66 -68
c-37 0 -67 31 -67 68s30 67 67 67z" />
    <glyph glyph-name="upsilondieresistonos" unicode="&#x3b0;" horiz-adv-x="625" 
d="M570 543v-324c0 -144 -124 -227 -258 -227c-124 0 -257 77 -257 227v324h139v-295c0 -83 36 -135 118 -135c87 0 118 58 118 135v295h140zM143 724c36 0 65 -30 65 -67s-29 -67 -65 -67c-37 0 -67 30 -67 67s30 67 67 67zM493 724c36 0 66 -30 66 -67s-30 -67 -66 -67
c-37 0 -66 30 -66 67s29 67 66 67zM259 589l54 205l105 -25l-86 -180h-73z" />
    <glyph glyph-name="Amacron" unicode="&#x100;" horiz-adv-x="768" 
d="M605 0l-64 143h-315l-63 -143h-151l336 705h71l337 -705h-151zM383 495l-106 -233h213zM225 766v90h316v-90h-316z" />
    <glyph glyph-name="Abreve" unicode="&#x102;" horiz-adv-x="768" 
d="M605 0l-64 143h-315l-63 -143h-151l336 705h71l337 -705h-151zM383 495l-106 -233h213zM383 756c-101 0 -170 47 -178 148l84 8c10 -45 39 -70 94 -70s84 25 94 70l85 -8c-8 -101 -78 -148 -179 -148z" />
    <glyph glyph-name="Aogonek" unicode="&#x104;" horiz-adv-x="768" 
d="M605 0l-64 143h-315l-63 -143h-151l336 705h71l337 -705h-1c-8 -11 -37 -42 -37 -64c0 -29 24 -40 51 -40c5 0 9 0 15 1l2 -67s-38 -4 -56 -4c-72 0 -110 30 -110 89c0 32 28 69 42 85h-57zM383 495l-106 -233h213z" />
    <glyph glyph-name="amacron" unicode="&#x101;" horiz-adv-x="670" 
d="M469 543h139v-543h-139v40c-45 -30 -99 -48 -159 -48c-170 0 -270 137 -270 281c0 145 100 281 270 281c57 0 113 -18 159 -45v34zM469 163v218c-34 29 -82 47 -134 47c-99 0 -161 -74 -161 -155c0 -82 63 -156 161 -156c53 0 100 17 134 46zM176 625v90h316v-90h-316z
" />
    <glyph glyph-name="abreve" unicode="&#x103;" horiz-adv-x="670" 
d="M469 543h139v-543h-139v40c-45 -30 -99 -48 -159 -48c-170 0 -270 137 -270 281c0 145 100 281 270 281c57 0 113 -18 159 -45v34zM469 163v218c-34 29 -82 47 -134 47c-99 0 -161 -74 -161 -155c0 -82 63 -156 161 -156c53 0 100 17 134 46zM335 615
c-101 0 -170 47 -178 148l84 8c10 -45 39 -70 94 -70s84 25 94 70l85 -8c-8 -101 -78 -148 -179 -148z" />
    <glyph glyph-name="aogonek" unicode="&#x105;" horiz-adv-x="670" 
d="M637 -103l2 -67s-38 -4 -56 -4c-72 0 -110 30 -110 89c0 32 28 69 42 85h-46v40c-45 -30 -99 -48 -159 -48c-170 0 -270 137 -270 281c0 145 100 281 270 281c57 0 113 -18 159 -45v34h139v-543c-8 -11 -37 -42 -37 -64c0 -29 24 -40 51 -40c5 0 9 0 15 1zM469 163v218
c-34 29 -82 47 -134 47c-99 0 -161 -74 -161 -155c0 -82 63 -156 161 -156c53 0 100 17 134 46z" />
    <glyph glyph-name="Ccircumflex" unicode="&#x108;" horiz-adv-x="742" 
d="M417 127c74 0 140 36 180 93l111 -94c-69 -82 -173 -134 -291 -134c-205 0 -372 161 -372 360s167 361 372 361c118 0 222 -53 291 -135l-111 -94c-40 57 -106 93 -180 93c-123 0 -224 -90 -224 -225c0 -133 101 -225 224 -225zM225 750l146 156h85l147 -156h-96l-94 88
l-93 -88h-95z" />
    <glyph glyph-name="Cacute" unicode="&#x106;" horiz-adv-x="742" 
d="M417 127c74 0 140 36 180 93l111 -94c-69 -82 -173 -134 -291 -134c-205 0 -372 161 -372 360s167 361 372 361c118 0 222 -53 291 -135l-111 -94c-40 57 -106 93 -180 93c-123 0 -224 -90 -224 -225c0 -133 101 -225 224 -225zM643 914l-185 -164h-86l120 177z" />
    <glyph glyph-name="Cdotaccent" unicode="&#x10a;" horiz-adv-x="742" 
d="M417 127c74 0 140 36 180 93l111 -94c-69 -82 -173 -134 -291 -134c-205 0 -372 161 -372 360s167 361 372 361c118 0 222 -53 291 -135l-111 -94c-40 57 -106 93 -180 93c-123 0 -224 -90 -224 -225c0 -133 101 -225 224 -225zM416 883c36 0 66 -30 66 -67
s-30 -68 -66 -68c-37 0 -66 31 -66 68s29 67 66 67z" />
    <glyph glyph-name="Ccaron" unicode="&#x10c;" horiz-adv-x="742" 
d="M417 127c74 0 140 36 180 93l111 -94c-69 -82 -173 -134 -291 -134c-205 0 -372 161 -372 360s167 361 372 361c118 0 222 -53 291 -135l-111 -94c-40 57 -106 93 -180 93c-123 0 -224 -90 -224 -225c0 -133 101 -225 224 -225zM374 750l-146 156h95l93 -88l94 88h96
l-147 -156h-85z" />
    <glyph glyph-name="ccircumflex" unicode="&#x109;" horiz-adv-x="576" 
d="M455 184l88 -83c-49 -67 -126 -109 -210 -109c-164 0 -297 125 -297 280c0 156 133 281 297 281c87 0 163 -42 212 -108l-90 -83c-27 40 -72 66 -122 66c-88 0 -160 -70 -160 -156c0 -85 72 -155 160 -155c50 0 95 26 122 67zM134 609l146 156h85l147 -156h-96l-94 88
l-93 -88h-95z" />
    <glyph glyph-name="cacute" unicode="&#x107;" horiz-adv-x="576" 
d="M455 184l88 -83c-49 -67 -126 -109 -210 -109c-164 0 -297 125 -297 280c0 156 133 281 297 281c87 0 163 -42 212 -108l-90 -83c-27 40 -72 66 -122 66c-88 0 -160 -70 -160 -156c0 -85 72 -155 160 -155c50 0 95 26 122 67zM558 773l-185 -164h-86l120 177z" />
    <glyph glyph-name="cdotaccent" unicode="&#x10b;" horiz-adv-x="576" 
d="M455 184l88 -83c-49 -67 -126 -109 -210 -109c-164 0 -297 125 -297 280c0 156 133 281 297 281c87 0 163 -42 212 -108l-90 -83c-27 40 -72 66 -122 66c-88 0 -160 -70 -160 -156c0 -85 72 -155 160 -155c50 0 95 26 122 67zM331 742c36 0 66 -30 66 -67
s-30 -68 -66 -68c-37 0 -66 31 -66 68s29 67 66 67z" />
    <glyph glyph-name="ccaron" unicode="&#x10d;" horiz-adv-x="576" 
d="M455 184l88 -83c-49 -67 -126 -109 -210 -109c-164 0 -297 125 -297 280c0 156 133 281 297 281c87 0 163 -42 212 -108l-90 -83c-27 40 -72 66 -122 66c-88 0 -160 -70 -160 -156c0 -85 72 -155 160 -155c50 0 95 26 122 67zM285 609l-146 156h95l93 -88l94 88h96
l-147 -156h-85z" />
    <glyph glyph-name="Dcroat" unicode="&#x110;" horiz-adv-x="808" 
d="M40 293v118h89v294h279c196 0 355 -158 355 -353c0 -187 -147 -352 -332 -352h-302v293h-89zM268 131h151c112 0 203 103 203 221c0 122 -96 222 -214 222h-140v-163h151v-118h-151v-162zM165 766v90h316v-90h-316z" />
    <glyph glyph-name="Dcaron" unicode="&#x10e;" horiz-adv-x="752" 
d="M707 352c0 -187 -147 -352 -332 -352h-302v705h279c196 0 355 -158 355 -353zM212 131h151c112 0 203 103 203 221c0 122 -96 222 -214 222h-140v-443zM282 750l-146 156h95l93 -88l94 88h96l-147 -156h-85z" />
    <glyph glyph-name="dcaron" unicode="&#x10f;" horiz-adv-x="812" 
d="M471 754h140v-754h-140v33c-44 -26 -101 -42 -158 -42c-151 0 -275 114 -275 281c0 170 124 281 275 281c58 0 113 -16 158 -41v242zM338 117c52 0 100 18 133 47v218c-33 28 -80 46 -133 46c-93 0 -162 -67 -162 -156c0 -92 69 -155 162 -155zM740 706
c46 0 76 -33 76 -94c0 -72 -29 -170 -158 -170l-19 56c58 1 84 20 88 56c-34 7 -60 37 -60 76c0 42 33 76 73 76z" />
    <glyph glyph-name="dcroat" unicode="&#x111;" horiz-adv-x="673" 
d="M704 692v-119h-93v-573h-140v33c-44 -26 -101 -42 -158 -42c-151 0 -275 114 -275 281c0 170 124 281 275 281c58 0 113 -16 158 -41v61h-89v119h89v62h140v-62h93zM338 117c52 0 100 18 133 47v218c-33 28 -80 46 -133 46c-93 0 -162 -67 -162 -156
c0 -92 69 -155 162 -155z" />
    <glyph glyph-name="Emacron" unicode="&#x112;" horiz-adv-x="656" 
d="M212 124h402v-124h-541v705h520v-124h-381v-179h319v-120h-319v-158zM175 766v90h316v-90h-316z" />
    <glyph glyph-name="Edotaccent" unicode="&#x116;" horiz-adv-x="656" 
d="M212 124h402v-124h-541v705h520v-124h-381v-179h319v-120h-319v-158zM334 883c36 0 66 -30 66 -67s-30 -68 -66 -68c-37 0 -66 31 -66 68s29 67 66 67z" />
    <glyph glyph-name="Ebreve" unicode="&#x114;" horiz-adv-x="656" 
d="M212 124h402v-124h-541v705h520v-124h-381v-179h319v-120h-319v-158zM334 756c-101 0 -170 47 -178 148l84 8c10 -45 39 -70 94 -70s84 25 94 70l85 -8c-8 -101 -78 -148 -179 -148z" />
    <glyph glyph-name="Ecaron" unicode="&#x11a;" horiz-adv-x="656" 
d="M212 124h402v-124h-541v705h520v-124h-381v-179h319v-120h-319v-158zM292 750l-146 156h95l93 -88l94 88h96l-147 -156h-85z" />
    <glyph glyph-name="Eogonek" unicode="&#x118;" horiz-adv-x="656" 
d="M643 -103l2 -67s-38 -4 -56 -4c-72 0 -110 30 -110 89c0 32 28 69 42 85h-448v705h520v-124h-381v-179h319v-120h-319v-158h402v-124c-8 -11 -37 -42 -37 -64c0 -29 24 -40 51 -40c5 0 9 0 15 1z" />
    <glyph glyph-name="emacron" unicode="&#x113;" horiz-adv-x="615" 
d="M578 232h-402c15 -71 72 -121 155 -121c57 0 110 26 140 67l89 -74c-50 -68 -139 -112 -245 -112c-164 0 -278 125 -278 280c0 156 114 281 278 281c167 0 264 -121 264 -290c0 -11 -1 -22 -1 -31zM315 442c-73 0 -125 -54 -138 -121h269c-5 62 -38 121 -131 121z
M162 625v90h316v-90h-316z" />
    <glyph glyph-name="edotaccent" unicode="&#x117;" horiz-adv-x="615" 
d="M578 232h-402c15 -71 72 -121 155 -121c57 0 110 26 140 67l89 -74c-50 -68 -139 -112 -245 -112c-164 0 -278 125 -278 280c0 156 114 281 278 281c167 0 264 -121 264 -290c0 -11 -1 -22 -1 -31zM315 442c-73 0 -125 -54 -138 -121h269c-5 62 -38 121 -131 121z
M313 742c36 0 66 -30 66 -67s-30 -68 -66 -68c-37 0 -66 31 -66 68s29 67 66 67z" />
    <glyph glyph-name="ebreve" unicode="&#x115;" horiz-adv-x="615" 
d="M578 232h-402c15 -71 72 -121 155 -121c57 0 110 26 140 67l89 -74c-50 -68 -139 -112 -245 -112c-164 0 -278 125 -278 280c0 156 114 281 278 281c167 0 264 -121 264 -290c0 -11 -1 -22 -1 -31zM315 442c-73 0 -125 -54 -138 -121h269c-5 62 -38 121 -131 121z
M313 615c-101 0 -170 47 -178 148l84 8c10 -45 39 -70 94 -70s84 25 94 70l85 -8c-8 -101 -78 -148 -179 -148z" />
    <glyph glyph-name="ecaron" unicode="&#x11b;" horiz-adv-x="615" 
d="M578 232h-402c15 -71 72 -121 155 -121c57 0 110 26 140 67l89 -74c-50 -68 -139 -112 -245 -112c-164 0 -278 125 -278 280c0 156 114 281 278 281c167 0 264 -121 264 -290c0 -11 -1 -22 -1 -31zM315 442c-73 0 -125 -54 -138 -121h269c-5 62 -38 121 -131 121z
M271 609l-146 156h95l93 -88l94 88h96l-147 -156h-85z" />
    <glyph glyph-name="eogonek" unicode="&#x119;" horiz-adv-x="615" 
d="M430 -100l2 -67s-38 -4 -56 -4c-72 0 -110 30 -110 89c0 26 18 56 33 75c-155 7 -262 129 -262 279c0 156 114 281 278 281c167 0 264 -121 264 -290c0 -11 -1 -22 -1 -31h-402c15 -71 72 -121 155 -121c57 0 110 26 140 67l89 -74c-36 -49 -92 -86 -160 -102
c-9 -11 -36 -41 -36 -63c0 -29 24 -40 51 -40c5 0 9 0 15 1zM315 442c-73 0 -125 -54 -138 -121h269c-5 62 -38 121 -131 121z" />
    <glyph glyph-name="Gcircumflex" unicode="&#x11c;" horiz-adv-x="779" 
d="M404 353h322v-258c-78 -63 -186 -103 -307 -103c-206 0 -374 161 -374 360s168 360 374 360c118 0 214 -39 282 -101l-90 -100c-47 42 -115 67 -192 67c-126 0 -228 -102 -228 -226c0 -131 102 -233 228 -233c63 0 119 18 164 48v66h-179v120zM226 750l146 156h85
l147 -156h-96l-94 88l-93 -88h-95z" />
    <glyph glyph-name="Gdotaccent" unicode="&#x120;" horiz-adv-x="779" 
d="M404 353h322v-258c-78 -63 -186 -103 -307 -103c-206 0 -374 161 -374 360s168 360 374 360c118 0 214 -39 282 -101l-90 -100c-47 42 -115 67 -192 67c-126 0 -228 -102 -228 -226c0 -131 102 -233 228 -233c63 0 119 18 164 48v66h-179v120zM414 883
c36 0 66 -30 66 -67s-30 -68 -66 -68c-37 0 -66 31 -66 68s29 67 66 67z" />
    <glyph glyph-name="Gbreve" unicode="&#x11e;" horiz-adv-x="779" 
d="M404 353h322v-258c-78 -63 -186 -103 -307 -103c-206 0 -374 161 -374 360s168 360 374 360c118 0 214 -39 282 -101l-90 -100c-47 42 -115 67 -192 67c-126 0 -228 -102 -228 -226c0 -131 102 -233 228 -233c63 0 119 18 164 48v66h-179v120zM414 756
c-101 0 -170 47 -178 148l84 8c10 -45 39 -70 94 -70s84 25 94 70l85 -8c-8 -101 -78 -148 -179 -148z" />
    <glyph glyph-name="gcircumflex" unicode="&#x11d;" horiz-adv-x="673" 
d="M471 543h139v-439c0 -140 -78 -293 -284 -293c-134 0 -160 12 -244 36l27 103c59 -16 109 -32 184 -32c83 0 168 50 172 135c-44 -24 -96 -38 -152 -38c-152 0 -275 109 -275 270c0 162 123 268 275 268c57 0 113 -15 158 -41v31zM175 284c0 -86 69 -144 162 -144
c53 0 101 16 134 44v200c-34 28 -81 44 -134 44c-93 0 -162 -62 -162 -144zM148 609l146 156h85l147 -156h-96l-94 88l-93 -88h-95z" />
    <glyph glyph-name="gdotaccent" unicode="&#x121;" horiz-adv-x="673" 
d="M471 543h139v-439c0 -140 -78 -293 -284 -293c-134 0 -160 12 -244 36l27 103c59 -16 109 -32 184 -32c83 0 168 50 172 135c-44 -24 -96 -38 -152 -38c-152 0 -275 109 -275 270c0 162 123 268 275 268c57 0 113 -15 158 -41v31zM175 284c0 -86 69 -144 162 -144
c53 0 101 16 134 44v200c-34 28 -81 44 -134 44c-93 0 -162 -62 -162 -144zM336 742c36 0 66 -30 66 -67s-30 -68 -66 -68c-37 0 -66 31 -66 68s29 67 66 67z" />
    <glyph glyph-name="gbreve" unicode="&#x11f;" horiz-adv-x="673" 
d="M471 543h139v-439c0 -140 -78 -293 -284 -293c-134 0 -160 12 -244 36l27 103c59 -16 109 -32 184 -32c83 0 168 50 172 135c-44 -24 -96 -38 -152 -38c-152 0 -275 109 -275 270c0 162 123 268 275 268c57 0 113 -15 158 -41v31zM175 284c0 -86 69 -144 162 -144
c53 0 101 16 134 44v200c-34 28 -81 44 -134 44c-93 0 -162 -62 -162 -144zM336 615c-101 0 -170 47 -178 148l84 8c10 -45 39 -70 94 -70s84 25 94 70l85 -8c-8 -101 -78 -148 -179 -148z" />
    <glyph glyph-name="Gcommaaccent" unicode="&#x122;" horiz-adv-x="779" 
d="M404 353h322v-258c-78 -63 -186 -103 -307 -103c-206 0 -374 161 -374 360s168 360 374 360c118 0 214 -39 282 -101l-90 -100c-47 42 -115 67 -192 67c-126 0 -228 -102 -228 -226c0 -131 102 -233 228 -233c63 0 119 18 164 48v66h-179v120zM422 -50
c46 0 76 -34 76 -94c0 -72 -29 -170 -158 -170l-19 56c58 1 84 20 89 56c-35 7 -61 37 -61 75c0 43 33 77 73 77z" />
    <glyph glyph-name="gcommaaccent" unicode="&#x123;" horiz-adv-x="673" 
d="M471 543h139v-439c0 -140 -78 -293 -284 -293c-134 0 -160 12 -244 36l27 103c59 -16 109 -32 184 -32c83 0 168 50 172 135c-44 -24 -96 -38 -152 -38c-152 0 -275 109 -275 270c0 162 123 268 275 268c57 0 113 -15 158 -41v31zM175 284c0 -86 69 -144 162 -144
c53 0 101 16 134 44v200c-34 28 -81 44 -134 44c-93 0 -162 -62 -162 -144zM326 615c-46 0 -76 34 -76 94c0 72 29 170 158 170l19 -56c-58 -1 -84 -20 -89 -56c35 -7 61 -37 61 -75c0 -43 -33 -77 -73 -77z" />
    <glyph glyph-name="Hcircumflex" unicode="&#x124;" horiz-adv-x="750" 
d="M537 705h140v-705h-140v239h-325v-239h-139v705h139v-343h325v343zM193 750l146 156h85l147 -156h-96l-94 88l-93 -88h-95z" />
    <glyph glyph-name="hcircumflex" unicode="&#x125;" horiz-adv-x="635" 
d="M347 553c159 0 232 -74 232 -250v-303h-139v303c0 84 -41 125 -118 125c-49 0 -89 -15 -120 -41v-387h-139v754h47l143 152h85l147 -156h-96l-94 88l-93 -88v-235c40 25 90 38 145 38z" />
    <glyph glyph-name="Hbar" unicode="&#x126;" horiz-adv-x="750" 
d="M42 548v95h31v62h139v-62h325v62h140v-62h29v-95h-29v-548h-140v239h-325v-239h-139v548h-31zM212 362h325v186h-325v-186z" />
    <glyph glyph-name="hbar" unicode="&#x127;" horiz-adv-x="635" 
d="M-1 549v94h64v111h139v-111h65v-94h-65v-34c40 25 90 38 145 38c159 0 232 -74 232 -250v-303h-139v303c0 84 -41 125 -118 125c-49 0 -89 -15 -120 -41v-387h-139v549h-64z" />
    <glyph glyph-name="Itilde" unicode="&#x128;" horiz-adv-x="295" 
d="M220 705v-705h-144v705h144zM11 753l-64 7c3 98 52 155 118 155c61 0 119 -42 159 -42c29 0 52 25 64 63l64 -9c-4 -95 -55 -154 -115 -154s-122 42 -159 42c-34 0 -55 -25 -67 -62z" />
    <glyph glyph-name="Imacron" unicode="&#x12a;" horiz-adv-x="295" 
d="M220 705v-705h-144v705h144zM-10 779v90h316v-90h-316z" />
    <glyph glyph-name="Idotaccent" unicode="&#x130;" horiz-adv-x="295" 
d="M220 705v-705h-144v705h144zM149 896c36 0 66 -30 66 -67s-30 -68 -66 -68c-37 0 -66 31 -66 68s29 67 66 67z" />
    <glyph glyph-name="Ibreve" unicode="&#x12c;" horiz-adv-x="295" 
d="M220 705v-705h-144v705h144zM148 769c-101 0 -170 47 -178 148l84 8c10 -45 39 -70 94 -70s84 25 94 70l85 -8c-8 -101 -78 -148 -179 -148z" />
    <glyph glyph-name="Iogonek" unicode="&#x12e;" horiz-adv-x="295" 
d="M249 -103l2 -67s-38 -4 -56 -4c-72 0 -110 30 -110 89c0 32 28 69 42 85h-51v705h144v-705c-8 -11 -37 -42 -37 -64c0 -29 24 -40 51 -40c5 0 9 0 15 1z" />
    <glyph glyph-name="itilde" unicode="&#x129;" horiz-adv-x="272" 
d="M-1 589l-64 7c3 98 52 155 118 155c61 0 119 -42 159 -42c29 0 52 25 64 63l64 -9c-4 -95 -55 -154 -115 -154s-122 42 -159 42c-34 0 -55 -25 -67 -62zM66 0v543h139v-543h-139z" />
    <glyph glyph-name="imacron" unicode="&#x12b;" horiz-adv-x="272" 
d="M-22 615v90h316v-90h-316zM66 0v543h139v-543h-139z" />
    <glyph glyph-name="ibreve" unicode="&#x12d;" horiz-adv-x="272" 
d="M136 605c-101 0 -170 47 -178 148l84 8c10 -45 39 -70 94 -70s84 25 94 70l85 -8c-8 -101 -78 -148 -179 -148zM66 0v543h139v-543h-139z" />
    <glyph glyph-name="iogonek" unicode="&#x12f;" horiz-adv-x="272" 
d="M66 0v543h139v-543c-8 -11 -37 -42 -37 -64c0 -29 24 -40 51 -40c5 0 9 0 15 1l2 -67s-38 -4 -56 -4c-72 0 -110 30 -110 89c0 32 28 69 42 85h-46zM135 602c-44 0 -80 36 -80 81s36 82 80 82s79 -37 79 -82s-35 -81 -79 -81z" />
    <glyph glyph-name="IJ" unicode="&#x132;" horiz-adv-x="872" 
d="M220 705v-705h-144v705h144zM668 705h144v-417c0 -175 -81 -296 -253 -296c-129 0 -235 98 -248 223l123 12c13 -59 57 -101 121 -101c70 0 113 53 113 121v458z" />
    <glyph glyph-name="ij" unicode="&#x133;" horiz-adv-x="545" 
d="M66 0v543h139v-543h-139zM135 602c-44 0 -80 36 -80 81s36 82 80 82s79 -37 79 -82s-35 -81 -79 -81zM338 52v491h140v-561c0 -113 -74 -171 -164 -171c-35 0 -62 4 -82 8v112c6 0 12 -1 18 -1c72 0 88 30 88 122zM408 602c-44 0 -80 36 -80 81s36 82 80 82
c43 0 79 -37 79 -82s-36 -81 -79 -81z" />
    <glyph glyph-name="Jcircumflex" unicode="&#x134;" horiz-adv-x="578" 
d="M371 705h144v-417c0 -175 -81 -296 -253 -296c-129 0 -235 98 -248 223l123 12c13 -59 57 -101 121 -101c70 0 113 53 113 121v458zM114 750l146 156h85l147 -156h-96l-94 88l-93 -88h-95z" />
    <glyph glyph-name="jcircumflex" unicode="&#x135;" horiz-adv-x="273" 
d="M65 52v491h140v-561c0 -113 -74 -171 -164 -171c-35 0 -62 4 -82 8v112c6 0 12 -1 18 -1c72 0 88 30 88 122zM-51 609l146 156h85l147 -156h-96l-94 88l-93 -88h-95z" />
    <glyph glyph-name="Kcommaaccent" unicode="&#x136;" horiz-adv-x="715" 
d="M386 357l317 -357h-188l-222 246l-81 -86v-160h-139v705h139v-339l309 339h173zM345 -50c46 0 76 -34 76 -94c0 -72 -29 -170 -158 -170l-19 56c58 1 84 20 89 56c-35 7 -61 37 -61 75c0 43 33 77 73 77z" />
    <glyph glyph-name="kcommaaccent" unicode="&#x137;" horiz-adv-x="606" 
d="M399 331l201 -331h-154l-139 222l-105 -101v-121h-139v754h139v-444l232 233h163zM309 -50c46 0 76 -34 76 -94c0 -72 -29 -170 -158 -170l-19 56c58 1 84 20 89 56c-35 7 -61 37 -61 75c0 43 33 77 73 77z" />
    <glyph glyph-name="kgreenlandic" unicode="&#x138;" horiz-adv-x="606" 
d="M399 331l201 -331h-154l-139 222l-105 -101v-121h-139v543h139v-233l232 233h163z" />
    <glyph glyph-name="Lacute" unicode="&#x139;" horiz-adv-x="608" 
d="M216 120h363v-120h-506v705h143v-585zM349 914l-185 -164h-86l120 177z" />
    <glyph glyph-name="lacute" unicode="&#x13a;" horiz-adv-x="271" 
d="M65 0v754h140v-754h-140zM367 963l-185 -164h-86l120 177z" />
    <glyph glyph-name="Lcommaaccent" unicode="&#x13b;" horiz-adv-x="608" 
d="M216 120h363v-120h-506v705h143v-585zM323 -50c46 0 76 -34 76 -94c0 -72 -29 -170 -158 -170l-19 56c58 1 84 20 89 56c-35 7 -61 37 -61 75c0 43 33 77 73 77z" />
    <glyph glyph-name="lcommaaccent" unicode="&#x13c;" horiz-adv-x="271" 
d="M65 0v754h140v-754h-140zM128 -50c46 0 76 -34 76 -94c0 -72 -29 -170 -158 -170l-19 56c58 1 84 20 89 56c-35 7 -61 37 -61 75c0 43 33 77 73 77z" />
    <glyph glyph-name="Ldot" unicode="&#x13f;" horiz-adv-x="608" 
d="M216 120h363v-120h-506v705h143v-585zM441 514c0 -45 -36 -81 -80 -81s-79 36 -79 81s35 81 79 81s80 -36 80 -81z" />
    <glyph glyph-name="ldot" unicode="&#x140;" horiz-adv-x="430" 
d="M65 0v754h140v-754h-140zM412 514c0 -45 -36 -81 -80 -81s-79 36 -79 81s35 81 79 81s80 -36 80 -81z" />
    <glyph glyph-name="Lcaron" unicode="&#x13d;" horiz-adv-x="608" 
d="M216 120h363v-120h-506v705h143v-585zM382 707c46 0 76 -33 76 -94c0 -72 -29 -170 -158 -170l-19 56c58 1 84 20 88 56c-34 7 -60 37 -60 76c0 42 33 76 73 76z" />
    <glyph glyph-name="lcaron" unicode="&#x13e;" horiz-adv-x="441" 
d="M65 0v754h140v-754h-140zM365 706c46 0 76 -33 76 -94c0 -72 -29 -170 -158 -170l-19 56c58 1 84 20 88 56c-34 7 -60 37 -60 76c0 42 33 76 73 76z" />
    <glyph glyph-name="Nacute" unicode="&#x143;" horiz-adv-x="780" 
d="M563 705h144v-705h-70l-421 444v-444h-143v705h70l420 -444v444zM616 914l-185 -164h-86l120 177z" />
    <glyph glyph-name="Ncaron" unicode="&#x147;" horiz-adv-x="780" 
d="M563 705h144v-705h-70l-421 444v-444h-143v705h70l420 -444v444zM344 750l-146 156h95l93 -88l94 88h96l-147 -156h-85z" />
    <glyph glyph-name="nacute" unicode="&#x144;" horiz-adv-x="636" 
d="M347 553c159 0 232 -74 232 -250v-303h-139v303c0 84 -41 125 -118 125c-49 0 -89 -16 -120 -43v-385h-139v543h139v-34c40 28 90 44 145 44zM543 763l-185 -164h-86l120 177z" />
    <glyph glyph-name="ncaron" unicode="&#x148;" horiz-adv-x="636" 
d="M347 553c159 0 232 -74 232 -250v-303h-139v303c0 84 -41 125 -118 125c-49 0 -89 -16 -120 -43v-385h-139v543h139v-34c40 28 90 44 145 44zM271 599l-146 156h95l93 -88l94 88h96l-147 -156h-85z" />
    <glyph glyph-name="Ncommaaccent" unicode="&#x145;" horiz-adv-x="780" 
d="M563 705h144v-705h-70l-421 444v-444h-143v705h70l420 -444v444zM390 -50c46 0 76 -34 76 -94c0 -72 -29 -170 -158 -170l-19 56c58 1 84 20 89 56c-35 7 -61 37 -61 75c0 43 33 77 73 77z" />
    <glyph glyph-name="ncommaaccent" unicode="&#x146;" horiz-adv-x="636" 
d="M347 553c159 0 232 -74 232 -250v-303h-139v303c0 84 -41 125 -118 125c-49 0 -89 -16 -120 -43v-385h-139v543h139v-34c40 28 90 44 145 44zM323 -50c46 0 76 -34 76 -94c0 -72 -29 -170 -158 -170l-19 56c58 1 84 20 89 56c-35 7 -61 37 -61 75c0 43 33 77 73 77z" />
    <glyph glyph-name="napostrophe" unicode="&#x149;" horiz-adv-x="636" 
d="M347 553c159 0 232 -74 232 -250v-303h-139v303c0 84 -41 125 -118 125c-49 0 -89 -16 -120 -43v-385h-139v543h139v-34c40 28 90 44 145 44zM148 866c46 0 76 -34 76 -94c0 -72 -29 -170 -158 -170l-19 56c58 1 84 20 89 56c-35 7 -61 37 -61 75c0 43 33 77 73 77z" />
    <glyph glyph-name="Eng" unicode="&#x14a;" horiz-adv-x="780" 
d="M563 705h144v-685c0 -171 -83 -290 -253 -290c-129 0 -235 98 -248 224l123 12c13 -59 57 -101 121 -101c117 0 113 116 113 209l-347 370v-444h-143v705h70l420 -444v444z" />
    <glyph glyph-name="eng" unicode="&#x14b;" horiz-adv-x="636" 
d="M347 553c159 0 232 -74 232 -250v-321c0 -113 -73 -171 -163 -171c-35 0 -62 4 -82 8v112c5 0 11 -1 18 -1c64 0 88 25 88 94v279c0 84 -41 125 -118 125c-49 0 -89 -16 -120 -43v-385h-139v543h139v-34c40 28 90 44 145 44z" />
    <glyph glyph-name="Omacron" unicode="&#x14c;" 
d="M419 712c208 0 375 -161 375 -360s-167 -360 -375 -360c-207 0 -375 161 -375 360s168 360 375 360zM419 126c126 0 229 101 229 226c0 124 -103 226 -229 226s-228 -102 -228 -226c0 -125 102 -226 228 -226zM258 766v90h316v-90h-316z" />
    <glyph glyph-name="Obreve" unicode="&#x14e;" 
d="M419 712c208 0 375 -161 375 -360s-167 -360 -375 -360c-207 0 -375 161 -375 360s168 360 375 360zM419 126c126 0 229 101 229 226c0 124 -103 226 -229 226s-228 -102 -228 -226c0 -125 102 -226 228 -226zM417 756c-101 0 -170 47 -178 148l84 8
c10 -45 39 -70 94 -70s84 25 94 70l85 -8c-8 -101 -78 -148 -179 -148z" />
    <glyph glyph-name="Ohungarumlaut" unicode="&#x150;" 
d="M419 712c208 0 375 -161 375 -360s-167 -360 -375 -360c-207 0 -375 161 -375 360s168 360 375 360zM419 126c126 0 229 101 229 226c0 124 -103 226 -229 226s-228 -102 -228 -226c0 -125 102 -226 228 -226zM379 930l118 -42l-120 -132h-95zM454 756l97 174l125 -44
l-128 -130h-94z" />
    <glyph glyph-name="omacron" unicode="&#x14d;" horiz-adv-x="666" 
d="M332 553c164 0 297 -125 297 -281c0 -155 -133 -280 -297 -280s-297 125 -297 280c0 156 133 281 297 281zM332 117c89 0 160 70 160 155c0 86 -71 156 -160 156c-88 0 -160 -70 -160 -156c0 -85 72 -155 160 -155zM174 615v90h316v-90h-316z" />
    <glyph glyph-name="obreve" unicode="&#x14f;" horiz-adv-x="666" 
d="M332 553c164 0 297 -125 297 -281c0 -155 -133 -280 -297 -280s-297 125 -297 280c0 156 133 281 297 281zM332 117c89 0 160 70 160 155c0 86 -71 156 -160 156c-88 0 -160 -70 -160 -156c0 -85 72 -155 160 -155zM331 605c-101 0 -170 47 -178 148l84 8
c10 -45 39 -70 94 -70s84 25 94 70l85 -8c-8 -101 -78 -148 -179 -148z" />
    <glyph glyph-name="ohungarumlaut" unicode="&#x151;" horiz-adv-x="666" 
d="M332 553c164 0 297 -125 297 -281c0 -155 -133 -280 -297 -280s-297 125 -297 280c0 156 133 281 297 281zM332 117c89 0 160 70 160 155c0 86 -71 156 -160 156c-88 0 -160 -70 -160 -156c0 -85 72 -155 160 -155zM292 779l118 -42l-120 -132h-95zM367 605l97 174
l125 -44l-128 -130h-94z" />
    <glyph glyph-name="Racute" unicode="&#x154;" horiz-adv-x="703" 
d="M510 0l-136 182c-8 -1 -18 -1 -27 -1h-131v-181h-143v705h311c206 0 276 -122 276 -254c0 -121 -50 -201 -143 -241l164 -210h-171zM216 581v-282h126c114 0 168 58 168 141c0 73 -38 141 -149 141h-145zM566 914l-185 -164h-86l120 177z" />
    <glyph glyph-name="Rcaron" unicode="&#x158;" horiz-adv-x="703" 
d="M510 0l-136 182c-8 -1 -18 -1 -27 -1h-131v-181h-143v705h311c206 0 276 -122 276 -254c0 -121 -50 -201 -143 -241l164 -210h-171zM216 581v-282h126c114 0 168 58 168 141c0 73 -38 141 -149 141h-145zM297 750l-146 156h95l93 -88l94 88h96l-147 -156h-85z" />
    <glyph glyph-name="racute" unicode="&#x155;" horiz-adv-x="436" 
d="M203 543v-76c37 51 94 85 171 86c10 0 23 -2 34 -6v-151s-38 8 -67 8c-100 0 -138 -71 -138 -142v-262h-140v543h140zM357 773l-185 -164h-86l120 177z" />
    <glyph glyph-name="rcaron" unicode="&#x159;" horiz-adv-x="436" 
d="M203 543v-76c37 51 94 85 171 86c10 0 23 -2 34 -6v-151s-38 8 -67 8c-100 0 -138 -71 -138 -142v-262h-140v543h140zM185 609l-146 156h95l93 -88l94 88h96l-147 -156h-85z" />
    <glyph glyph-name="Rcommaaccent" unicode="&#x156;" horiz-adv-x="703" 
d="M510 0l-136 182c-8 -1 -18 -1 -27 -1h-131v-181h-143v705h311c206 0 276 -122 276 -254c0 -121 -50 -201 -143 -241l164 -210h-171zM216 581v-282h126c114 0 168 58 168 141c0 73 -38 141 -149 141h-145zM356 -50c46 0 76 -34 76 -94c0 -72 -29 -170 -158 -170l-19 56
c58 1 84 20 89 56c-35 7 -61 37 -61 75c0 43 33 77 73 77z" />
    <glyph glyph-name="rcommaaccent" unicode="&#x157;" horiz-adv-x="436" 
d="M203 543v-76c37 51 94 85 171 86c10 0 23 -2 34 -6v-151s-38 8 -67 8c-100 0 -138 -71 -138 -142v-262h-140v543h140zM132 -50c46 0 76 -34 76 -94c0 -72 -29 -170 -158 -170l-19 56c58 1 84 20 89 56c-35 7 -61 37 -61 75c0 43 33 77 73 77z" />
    <glyph glyph-name="Scircumflex" unicode="&#x15c;" horiz-adv-x="646" 
d="M350 418c152 -34 256 -82 256 -211c0 -136 -109 -216 -273 -216c-120 0 -181 11 -293 67l52 111c93 -45 158 -54 246 -54c77 0 123 28 123 80c0 48 -47 69 -150 93c-145 33 -262 74 -262 213c0 124 99 212 260 212c107 0 201 -27 270 -57l-58 -114
c-62 26 -149 47 -215 47c-72 0 -112 -32 -112 -76c0 -50 50 -71 156 -95zM126 750l146 156h85l147 -156h-96l-94 88l-93 -88h-95z" />
    <glyph glyph-name="Sacute" unicode="&#x15a;" horiz-adv-x="646" 
d="M350 418c152 -34 256 -82 256 -211c0 -136 -109 -216 -273 -216c-120 0 -181 11 -293 67l52 111c93 -45 158 -54 246 -54c77 0 123 28 123 80c0 48 -47 69 -150 93c-145 33 -262 74 -262 213c0 124 99 212 260 212c107 0 201 -27 270 -57l-58 -114
c-62 26 -149 47 -215 47c-72 0 -112 -32 -112 -76c0 -50 50 -71 156 -95zM543 914l-185 -164h-86l120 177z" />
    <glyph glyph-name="Scaron" unicode="&#x160;" horiz-adv-x="646" 
d="M350 418c152 -34 256 -82 256 -211c0 -136 -109 -216 -273 -216c-120 0 -181 11 -293 67l52 111c93 -45 158 -54 246 -54c77 0 123 28 123 80c0 48 -47 69 -150 93c-145 33 -262 74 -262 213c0 124 99 212 260 212c107 0 201 -27 270 -57l-58 -114
c-62 26 -149 47 -215 47c-72 0 -112 -32 -112 -76c0 -50 50 -71 156 -95zM271 750l-146 156h95l93 -88l94 88h96l-147 -156h-85z" />
    <glyph glyph-name="scircumflex" unicode="&#x15d;" horiz-adv-x="521" 
d="M33 44l52 103c67 -29 118 -44 186 -44c64 0 89 24 89 52c0 31 -31 45 -115 63c-117 26 -202 64 -202 169c0 98 81 166 207 166c85 0 153 -20 212 -44l-46 -102c-53 20 -115 35 -169 35c-53 0 -80 -19 -80 -48c0 -30 33 -44 120 -62c126 -26 199 -70 199 -169
c0 -103 -79 -171 -218 -171c-94 0 -155 13 -235 52zM64 599l146 156h85l147 -156h-96l-94 88l-93 -88h-95z" />
    <glyph glyph-name="sacute" unicode="&#x15b;" horiz-adv-x="521" 
d="M33 44l52 103c67 -29 118 -44 186 -44c64 0 89 24 89 52c0 31 -31 45 -115 63c-117 26 -202 64 -202 169c0 98 81 166 207 166c85 0 153 -20 212 -44l-46 -102c-53 20 -115 35 -169 35c-53 0 -80 -19 -80 -48c0 -30 33 -44 120 -62c126 -26 199 -70 199 -169
c0 -103 -79 -171 -218 -171c-94 0 -155 13 -235 52zM480 763l-185 -164h-86l120 177z" />
    <glyph glyph-name="scaron" unicode="&#x161;" horiz-adv-x="521" 
d="M33 44l52 103c67 -29 118 -44 186 -44c64 0 89 24 89 52c0 31 -31 45 -115 63c-117 26 -202 64 -202 169c0 98 81 166 207 166c85 0 153 -20 212 -44l-46 -102c-53 20 -115 35 -169 35c-53 0 -80 -19 -80 -48c0 -30 33 -44 120 -62c126 -26 199 -70 199 -169
c0 -103 -79 -171 -218 -171c-94 0 -155 13 -235 52zM210 599l-146 156h95l93 -88l94 88h96l-147 -156h-85z" />
    <glyph glyph-name="Scedilla" unicode="&#x15e;" horiz-adv-x="646" 
d="M243 -78l58 69c-100 2 -160 16 -261 67l52 111c93 -45 158 -54 246 -54c77 0 123 28 123 80c0 48 -47 69 -150 93c-145 33 -262 74 -262 213c0 124 99 212 260 212c107 0 201 -27 270 -57l-58 -114c-62 26 -149 47 -215 47c-72 0 -112 -32 -112 -76c0 -50 50 -71 156 -95
c152 -34 256 -82 256 -211c0 -120 -84 -196 -216 -212l-22 -49c10 0 33 -19 33 -49c0 -42 -36 -85 -138 -85c-21 0 -54 3 -54 3l-5 48c11 -1 26 -2 39 -2c42 0 69 13 69 34c0 19 -32 27 -69 27z" />
    <glyph glyph-name="scedilla" unicode="&#x15f;" horiz-adv-x="521" 
d="M175 -78l60 71c-76 3 -132 16 -202 51l52 103c67 -29 118 -44 186 -44c64 0 89 24 89 52c0 31 -31 45 -115 63c-117 26 -202 64 -202 169c0 98 81 166 207 166c85 0 153 -20 212 -44l-46 -102c-53 20 -115 35 -169 35c-53 0 -80 -19 -80 -48c0 -30 33 -44 120 -62
c126 -26 199 -70 199 -169c0 -89 -59 -152 -164 -167l-22 -50c10 0 33 -19 33 -49c0 -42 -36 -85 -138 -85c-21 0 -54 3 -54 3l-5 48c11 -1 26 -2 39 -2c42 0 69 13 69 34c0 19 -32 27 -69 27z" />
    <glyph glyph-name="Tcedilla" unicode="&#x162;" horiz-adv-x="660" 
d="M254 -78l66 78h-61v581h-224v124h593v-124h-225v-580h1l-25 -55c10 0 33 -19 33 -49c0 -42 -36 -85 -138 -85c-21 0 -54 3 -54 3l-5 48c11 -1 26 -2 39 -2c42 0 69 13 69 34c0 19 -32 27 -69 27z" />
    <glyph glyph-name="tcedilla" unicode="&#x163;" horiz-adv-x="417" 
d="M200 -78l59 70c-90 1 -161 58 -161 171v265h-77v115h77v211h140v-211h152v-115h-152v-192c0 -97 16 -125 86 -125c24 0 45 3 64 5v-104c-3 -1 -16 -7 -38 -12l-25 -54c10 0 33 -19 33 -49c0 -42 -36 -85 -138 -85c-21 0 -54 3 -54 3l-5 48c11 -1 26 -2 39 -2
c42 0 69 13 69 34c0 19 -32 27 -69 27z" />
    <glyph glyph-name="Tcaron" unicode="&#x164;" horiz-adv-x="660" 
d="M628 705v-124h-225v-581h-144v581h-224v124h593zM291 750l-146 156h95l93 -88l94 88h96l-147 -156h-85z" />
    <glyph glyph-name="tcaron" unicode="&#x165;" horiz-adv-x="446" 
d="M390 428h-152v-192c0 -97 16 -125 86 -125c24 0 45 3 64 5v-104c-6 -2 -48 -20 -126 -20c-91 0 -164 57 -164 171v265h-77v115h77v211h140v-211h152v-115zM438 826c46 0 76 -33 76 -94c0 -72 -29 -170 -158 -170l-19 56c58 1 84 20 88 56c-34 7 -60 37 -60 76
c0 42 33 76 73 76z" />
    <glyph glyph-name="tbar" unicode="&#x167;" horiz-adv-x="417" 
d="M40 270v90h58v68h-77v115h77v211h140v-211h152v-115h-152v-68h118v-90h-118v-34c0 -97 16 -125 86 -125c24 0 45 3 64 5v-104c-6 -2 -48 -20 -126 -20c-91 0 -164 57 -164 171v107h-58z" />
    <glyph glyph-name="Tbar" unicode="&#x166;" horiz-adv-x="660" 
d="M174 329v90h85v162h-224v124h593v-124h-225v-162h87v-90h-87v-329h-144v329h-85z" />
    <glyph glyph-name="Utilde" unicode="&#x168;" horiz-adv-x="757" 
d="M691 705v-422c0 -162 -108 -291 -313 -291c-204 0 -311 128 -311 291v422h140v-385c0 -133 59 -196 171 -196c114 0 173 64 173 196v385h140zM242 740l-64 7c3 98 52 155 118 155c61 0 119 -42 159 -42c29 0 52 25 64 63l64 -9c-4 -95 -55 -154 -115 -154
s-122 42 -159 42c-34 0 -55 -25 -67 -62z" />
    <glyph glyph-name="Umacron" unicode="&#x16a;" horiz-adv-x="757" 
d="M691 705v-422c0 -162 -108 -291 -313 -291c-204 0 -311 128 -311 291v422h140v-385c0 -133 59 -196 171 -196c114 0 173 64 173 196v385h140zM220 766v90h316v-90h-316z" />
    <glyph glyph-name="Ubreve" unicode="&#x16c;" horiz-adv-x="757" 
d="M691 705v-422c0 -162 -108 -291 -313 -291c-204 0 -311 128 -311 291v422h140v-385c0 -133 59 -196 171 -196c114 0 173 64 173 196v385h140zM379 756c-101 0 -170 47 -178 148l84 8c10 -45 39 -70 94 -70s84 25 94 70l85 -8c-8 -101 -78 -148 -179 -148z" />
    <glyph glyph-name="Uhungarumlaut" unicode="&#x170;" horiz-adv-x="757" 
d="M691 705v-422c0 -162 -108 -291 -313 -291c-204 0 -311 128 -311 291v422h140v-385c0 -133 59 -196 171 -196c114 0 173 64 173 196v385h140zM341 930l118 -42l-120 -132h-95zM416 756l97 174l125 -44l-128 -130h-94z" />
    <glyph glyph-name="Uring" unicode="&#x16e;" horiz-adv-x="757" 
d="M691 705v-422c0 -162 -108 -291 -313 -291c-204 0 -311 128 -311 291v422h140v-385c0 -133 59 -196 171 -196c114 0 173 64 173 196v385h140zM268 770c0 59 52 111 111 111s111 -50 111 -111s-52 -111 -111 -111s-111 52 -111 111zM379 713c32 0 57 26 57 58
s-26 57 -57 57c-32 0 -57 -26 -57 -58c0 -31 25 -57 57 -57z" />
    <glyph glyph-name="Uogonek" unicode="&#x172;" horiz-adv-x="757" 
d="M487 -103l2 -67s-38 -4 -56 -4c-72 0 -110 30 -110 89c0 27 21 59 36 78c-192 7 -292 132 -292 290v422h140v-385c0 -133 59 -196 171 -196c114 0 173 64 173 196v385h140v-422c0 -140 -80 -255 -234 -283c-8 -12 -36 -42 -36 -64c0 -29 24 -40 51 -40c5 0 9 0 15 1z" />
    <glyph glyph-name="uring" unicode="&#x16f;" horiz-adv-x="639" 
d="M437 543h139v-543h-139v36c-41 -28 -92 -44 -148 -44c-159 0 -232 74 -232 250v301h139v-301c0 -84 41 -125 118 -125c50 0 91 16 123 43v383zM209 721c0 59 52 111 111 111s111 -50 111 -111s-52 -111 -111 -111s-111 52 -111 111zM320 664c32 0 57 26 57 58
s-26 57 -57 57c-32 0 -57 -26 -57 -58c0 -31 25 -57 57 -57z" />
    <glyph glyph-name="uogonek" unicode="&#x173;" horiz-adv-x="639" 
d="M605 -103l2 -67s-38 -4 -56 -4c-72 0 -110 30 -110 89c0 32 28 69 42 85h-46v36c-41 -28 -92 -44 -148 -44c-159 0 -232 74 -232 250v301h139v-301c0 -84 41 -125 118 -125c50 0 91 16 123 43v383h139v-543c-8 -11 -37 -42 -37 -64c0 -29 24 -40 51 -40c5 0 9 0 15 1z
" />
    <glyph glyph-name="utilde" unicode="&#x169;" horiz-adv-x="639" 
d="M437 543h139v-543h-139v36c-41 -28 -92 -44 -148 -44c-159 0 -232 74 -232 250v301h139v-301c0 -84 41 -125 118 -125c50 0 91 16 123 43v383zM181 589l-64 7c3 98 52 155 118 155c61 0 119 -42 159 -42c29 0 52 25 64 63l64 -9c-4 -95 -55 -154 -115 -154
s-122 42 -159 42c-34 0 -55 -25 -67 -62z" />
    <glyph glyph-name="umacron" unicode="&#x16b;" horiz-adv-x="639" 
d="M437 543h139v-543h-139v36c-41 -28 -92 -44 -148 -44c-159 0 -232 74 -232 250v301h139v-301c0 -84 41 -125 118 -125c50 0 91 16 123 43v383zM159 615v90h316v-90h-316z" />
    <glyph glyph-name="ubreve" unicode="&#x16d;" horiz-adv-x="639" 
d="M437 543h139v-543h-139v36c-41 -28 -92 -44 -148 -44c-159 0 -232 74 -232 250v301h139v-301c0 -84 41 -125 118 -125c50 0 91 16 123 43v383zM317 605c-101 0 -170 47 -178 148l84 8c10 -45 39 -70 94 -70s84 25 94 70l85 -8c-8 -101 -78 -148 -179 -148z" />
    <glyph glyph-name="uhungarumlaut" unicode="&#x171;" horiz-adv-x="639" 
d="M437 543h139v-543h-139v36c-41 -28 -92 -44 -148 -44c-159 0 -232 74 -232 250v301h139v-301c0 -84 41 -125 118 -125c50 0 91 16 123 43v383zM278 779l118 -42l-120 -132h-95zM353 605l97 174l125 -44l-128 -130h-94z" />
    <glyph glyph-name="Wcircumflex" unicode="&#x174;" horiz-adv-x="1117" 
d="M1092 705l-277 -705h-59l-200 463l-199 -463h-59l-278 705h155l159 -428l193 428h59l192 -428l159 428h155zM365 750l146 156h85l147 -156h-96l-94 88l-93 -88h-95z" />
    <glyph glyph-name="wcircumflex" unicode="&#x175;" horiz-adv-x="857" 
d="M705 543h138l-203 -543h-69l-142 337l-143 -337h-68l-204 543h139l116 -314l125 314h69l125 -314zM239 590l146 156h85l147 -156h-96l-94 88l-93 -88h-95z" />
    <glyph glyph-name="Ycircumflex" unicode="&#x176;" horiz-adv-x="699" 
d="M528 705h164l-271 -466v-239h-144v239l-270 466h163l180 -311zM162 750l146 156h85l147 -156h-96l-94 88l-93 -88h-95z" />
    <glyph glyph-name="ycircumflex" unicode="&#x177;" horiz-adv-x="620" 
d="M457 543h143l-224 -572c-48 -123 -176 -159 -290 -159c-18 0 -34 0 -49 1l17 105h15c75 0 142 19 173 82h-12l-212 543h146l143 -369h10zM124 599l146 156h85l147 -156h-96l-94 88l-93 -88h-95z" />
    <glyph glyph-name="Zacute" unicode="&#x179;" horiz-adv-x="682" 
d="M638 705v-65l-389 -516h391v-124h-597v62l390 519h-372v124h577zM591 914l-185 -164h-86l120 177z" />
    <glyph glyph-name="Zdotaccent" unicode="&#x17b;" horiz-adv-x="682" 
d="M638 705v-65l-389 -516h391v-124h-597v62l390 519h-372v124h577zM359 883c36 0 66 -30 66 -67s-30 -68 -66 -68c-37 0 -66 31 -66 68s29 67 66 67z" />
    <glyph glyph-name="Zcaron" unicode="&#x17d;" horiz-adv-x="682" 
d="M638 705v-65l-389 -516h391v-124h-597v62l390 519h-372v124h577zM316 750l-146 156h95l93 -88l94 88h96l-147 -156h-85z" />
    <glyph glyph-name="zacute" unicode="&#x17a;" horiz-adv-x="572" 
d="M545 476l-308 -361h302v-115h-509v68l307 360h-287v115h495v-67zM511 763l-185 -164h-86l120 177z" />
    <glyph glyph-name="zdotaccent" unicode="&#x17c;" horiz-adv-x="572" 
d="M545 476l-308 -361h302v-115h-509v68l307 360h-287v115h495v-67zM288 732c36 0 66 -30 66 -67s-30 -68 -66 -68c-37 0 -66 31 -66 68s29 67 66 67z" />
    <glyph glyph-name="zcaron" unicode="&#x17e;" horiz-adv-x="572" 
d="M545 476l-308 -361h302v-115h-509v68l307 360h-287v115h495v-67zM248 599l-146 156h95l93 -88l94 88h96l-147 -156h-85z" />
    <glyph glyph-name="Aringacute" unicode="&#x1fa;" horiz-adv-x="768" 
d="M614 993l-158 -140c24 -20 39 -50 39 -83c0 -43 -25 -80 -60 -98l321 -672h-151l-64 143h-315l-63 -143h-151l320 672c-35 19 -59 57 -59 98c0 57 48 107 105 111l85 125zM383 495l-106 -233h213zM384 713c32 0 57 26 57 58s-26 57 -57 57c-32 0 -57 -26 -57 -58
c0 -31 25 -57 57 -57z" />
    <glyph glyph-name="aringacute" unicode="&#x1fb;" horiz-adv-x="670" 
d="M469 543h139v-543h-139v40c-45 -30 -99 -48 -159 -48c-170 0 -270 137 -270 281c0 145 100 281 270 281c57 0 113 -18 159 -45v34zM469 163v218c-34 29 -82 47 -134 47c-99 0 -161 -74 -161 -155c0 -82 63 -156 161 -156c53 0 100 17 134 46zM569 944l-159 -141
c23 -20 38 -50 38 -82c0 -61 -52 -111 -111 -111s-111 52 -111 111c0 58 50 109 107 111l85 125zM337 664c32 0 57 26 57 58s-26 57 -57 57c-32 0 -57 -26 -57 -58c0 -31 25 -57 57 -57z" />
    <glyph glyph-name="AEacute" unicode="&#x1fc;" horiz-adv-x="1036" 
d="M593 124h401v-124h-541v143h-229l-70 -143h-151l356 705h614v-124h-380v-179h318v-120h-318v-158zM427 570l-151 -308h177v308h-26zM693 914l-185 -164h-86l120 177z" />
    <glyph glyph-name="aeacute" unicode="&#x1fd;" horiz-adv-x="1101" 
d="M1064 232h-402c15 -71 72 -121 155 -121c57 0 110 26 140 67l89 -74c-50 -68 -139 -112 -245 -112c-76 0 -140 26 -188 70v-62h-140v40c-45 -30 -99 -48 -158 -48c-152 0 -275 113 -275 280c0 170 123 281 275 281c56 0 113 -17 158 -44v34h140v-60c48 43 112 70 188 70
c167 0 264 -121 264 -290c0 -11 -1 -22 -1 -31zM473 163v218c-34 29 -82 49 -133 49c-94 0 -166 -69 -166 -158c0 -92 72 -157 166 -157c52 0 99 19 133 48zM801 442c-73 0 -125 -54 -138 -121h269c-5 62 -38 121 -131 121zM782 773l-185 -164h-86l120 177z" />
    <glyph glyph-name="Oslashacute" unicode="&#x1fe;" 
d="M644 914l-185 -164h-86l120 177zM59 0l89 104c-64 64 -104 152 -104 248c0 199 168 360 375 360c75 0 145 -21 203 -58l45 51h119l-94 -109c63 -64 102 -150 102 -244c0 -199 -167 -360 -375 -360c-74 0 -142 20 -200 55l-41 -47h-119zM191 352c0 -52 19 -99 51 -135
l291 330c-33 19 -72 31 -114 31c-126 0 -228 -102 -228 -226zM419 126c126 0 229 101 229 226c0 49 -19 95 -50 131l-289 -329c32 -18 69 -28 110 -28z" />
    <glyph glyph-name="oslashacute" unicode="&#x1ff;" horiz-adv-x="665" 
d="M557 773l-185 -164h-86l120 177zM39 0l74 84c-49 49 -78 115 -78 188c0 156 133 281 297 281c59 0 115 -17 161 -45l34 38h101l-77 -87c48 -49 78 -114 78 -187c0 -155 -133 -280 -297 -280c-59 0 -113 16 -159 43l-32 -35h-102zM332 117c89 0 160 70 160 155
c0 31 -12 60 -33 82l-200 -219c21 -12 46 -18 73 -18zM172 272c0 -32 12 -61 32 -83l202 220c-21 12 -47 19 -74 19c-88 0 -160 -70 -160 -156z" />
    <glyph glyph-name="Scommaaccent" unicode="&#x218;" horiz-adv-x="646" 
d="M350 418c152 -34 256 -82 256 -211c0 -136 -109 -216 -273 -216c-120 0 -181 11 -293 67l52 111c93 -45 158 -54 246 -54c77 0 123 28 123 80c0 48 -47 69 -150 93c-145 33 -262 74 -262 213c0 124 99 212 260 212c107 0 201 -27 270 -57l-58 -114
c-62 26 -149 47 -215 47c-72 0 -112 -32 -112 -76c0 -50 50 -71 156 -95zM323 -50c46 0 76 -34 76 -94c0 -72 -29 -170 -158 -170l-19 56c58 1 84 20 89 56c-35 7 -61 37 -61 75c0 43 33 77 73 77z" />
    <glyph glyph-name="scommaaccent" unicode="&#x219;" horiz-adv-x="521" 
d="M33 44l52 103c67 -29 118 -44 186 -44c64 0 89 24 89 52c0 31 -31 45 -115 63c-117 26 -202 64 -202 169c0 98 81 166 207 166c85 0 153 -20 212 -44l-46 -102c-53 20 -115 35 -169 35c-53 0 -80 -19 -80 -48c0 -30 33 -44 120 -62c126 -26 199 -70 199 -169
c0 -103 -79 -171 -218 -171c-94 0 -155 13 -235 52zM267 -50c46 0 76 -34 76 -94c0 -72 -29 -170 -158 -170l-19 56c58 1 84 20 89 56c-35 7 -61 37 -61 75c0 43 33 77 73 77z" />
    <glyph glyph-name="uni021A" unicode="&#x21a;" horiz-adv-x="660" 
d="M628 705v-124h-225v-581h-144v581h-224v124h593zM329 -50c46 0 76 -34 76 -94c0 -72 -29 -170 -158 -170l-19 56c58 1 84 20 89 56c-35 7 -61 37 -61 75c0 43 33 77 73 77z" />
    <glyph glyph-name="uni021B" unicode="&#x21b;" horiz-adv-x="417" 
d="M390 428h-152v-192c0 -97 16 -125 86 -125c24 0 45 3 64 5v-104c-6 -2 -48 -20 -126 -20c-91 0 -164 57 -164 171v265h-77v115h77v211h140v-211h152v-115zM243 -50c46 0 76 -34 76 -94c0 -72 -29 -170 -158 -170l-19 56c58 1 84 20 89 56c-35 7 -61 37 -61 75
c0 43 33 77 73 77z" />
    <glyph glyph-name="dotlessj" unicode="&#x237;" horiz-adv-x="273" 
d="M65 52v491h140v-561c0 -113 -74 -171 -164 -171c-35 0 -62 4 -82 8v112c6 0 12 -1 18 -1c72 0 88 30 88 122z" />
    <glyph glyph-name="Wgrave" unicode="&#x1e80;" horiz-adv-x="1117" 
d="M1092 705l-277 -705h-59l-200 463l-199 -463h-59l-278 705h155l159 -428l193 428h59l192 -428l159 428h155zM512 750l-185 164l151 13l120 -177h-86z" />
    <glyph glyph-name="Wdieresis" unicode="&#x1e84;" horiz-adv-x="1117" 
d="M1092 705l-277 -705h-59l-200 463l-199 -463h-59l-278 705h155l159 -428l193 428h59l192 -428l159 428h155zM651 883c37 0 66 -30 66 -67s-29 -68 -66 -68c-36 0 -66 31 -66 68s30 67 66 67zM456 883c36 0 66 -30 66 -67s-30 -68 -66 -68c-37 0 -67 31 -67 68
s30 67 67 67z" />
    <glyph glyph-name="Wacute" unicode="&#x1e82;" horiz-adv-x="1117" 
d="M1092 705l-277 -705h-59l-200 463l-199 -463h-59l-278 705h155l159 -428l193 428h59l192 -428l159 428h155zM783 914l-185 -164h-86l120 177z" />
    <glyph glyph-name="wgrave" unicode="&#x1e81;" horiz-adv-x="857" 
d="M705 543h138l-203 -543h-69l-142 337l-143 -337h-68l-204 543h139l116 -314l125 314h69l125 -314zM385 590l-185 164l151 13l120 -177h-86z" />
    <glyph glyph-name="wdieresis" unicode="&#x1e85;" horiz-adv-x="857" 
d="M705 543h138l-203 -543h-69l-142 337l-143 -337h-68l-204 543h139l116 -314l125 314h69l125 -314zM525 723c37 0 66 -30 66 -67s-29 -68 -66 -68c-36 0 -66 31 -66 68s30 67 66 67zM330 723c36 0 66 -30 66 -67s-30 -68 -66 -68c-37 0 -67 31 -67 68s30 67 67 67z" />
    <glyph glyph-name="wacute" unicode="&#x1e83;" horiz-adv-x="857" 
d="M705 543h138l-203 -543h-69l-142 337l-143 -337h-68l-204 543h139l116 -314l125 314h69l125 -314zM658 754l-185 -164h-86l120 177z" />
    <glyph glyph-name="Ygrave" unicode="&#x1ef2;" horiz-adv-x="699" 
d="M528 705h164l-271 -466v-239h-144v239l-270 466h163l180 -311zM305 750l-185 164l151 13l120 -177h-86z" />
    <glyph glyph-name="ygrave" unicode="&#x1ef3;" horiz-adv-x="620" 
d="M457 543h143l-224 -572c-48 -123 -176 -159 -290 -159c-18 0 -34 0 -49 1l17 105h15c75 0 142 19 173 82h-12l-212 543h146l143 -369h10zM272 599l-185 164l151 13l120 -177h-86z" />
    </font>
</defs>
</svg>
