<?xml version="1.0" standalone="no"?>
<!DOCTYPE svg PUBLIC "-//W3C//DTD SVG 1.1//EN" "http://www.w3.org/Graphics/SVG/1.1/DTD/svg11.dtd" >
<svg xmlns="http://www.w3.org/2000/svg" xmlns:xlink="http://www.w3.org/1999/xlink" version="1.1">
<metadata>
Created by FontForge 20201107 at Thu Mar 27 10:58:43 2014
 By Jimmy Wärting
Copyright (c) 2014 by Intelligent Design - Kostas Bartsokas. All rights reserved.
</metadata>
<defs>
<font id="ZonaPro" horiz-adv-x="737" >
  <font-face 
    font-family="Zona Pro"
    font-weight="400"
    font-stretch="normal"
    units-per-em="1000"
    panose-1="2 1 5 3 4 0 2 2 0 4"
    ascent="825"
    descent="-175"
    x-height="541"
    cap-height="705"
    bbox="-255 -268 1239 993"
    underline-thickness="20"
    underline-position="-133"
    stemh="43"
    stemv="45"
    unicode-range="U+0020-FB04"
  />
<missing-glyph horiz-adv-x="500" 
 />
    <glyph glyph-name="f_i" unicode="fi" horiz-adv-x="600" 
d="M196 567v-26h326v-541h-84v472h-242v-496c0 -108 -70 -163 -156 -163c-24 0 -45 3 -61 6v67c8 -1 18 -1 29 -1c69 0 105 36 105 125v462h-91v69h91v39c0 154 112 179 180 179c39 0 70 -5 84 -10v-63c-16 3 -39 7 -74 7c-88 0 -107 -51 -107 -126zM480 631
c-29 0 -52 23 -52 52s23 51 52 51s52 -22 52 -51s-23 -52 -52 -52z" />
    <glyph glyph-name="f_l" unicode="fl" horiz-adv-x="619" 
d="M330 760c131 0 212 -78 212 -197v-563h-84v543c0 114 -54 148 -128 148c-101 0 -134 -46 -134 -150h173v-69h-173v-496c0 -116 -79 -162 -170 -162c-17 0 -33 3 -47 4v67c8 0 18 -1 29 -1c69 0 105 37 105 126v462h-91v69h91c0 125 52 219 217 219z" />
    <glyph glyph-name="f_f" unicode="ff" horiz-adv-x="751" 
d="M747 744v-63c-17 3 -40 7 -74 7c-87 0 -108 -37 -108 -115v-32h174v-69h-174v-479c0 -122 -83 -162 -177 -162c-15 0 -40 4 -40 4v68c9 -1 18 -2 29 -2c69 0 105 37 105 126v445h-286v-496c0 -113 -76 -163 -165 -163c-19 0 -52 5 -52 5v67c8 0 18 -1 29 -1
c69 0 105 37 105 126v462h-91v69h91v28c0 127 75 165 164 165c51 0 87 -10 100 -14v-63c-23 4 -49 8 -86 8c-71 0 -95 -32 -95 -101v-23h286v44c0 141 75 173 164 173c51 0 86 -10 101 -14z" />
    <glyph glyph-name="f_f_i" unicode="ffi" horiz-adv-x="977" 
d="M857 631c-29 0 -52 23 -52 52s23 51 52 51s52 -22 52 -51s-23 -52 -52 -52zM565 565v-24h334v-541h-84v472h-250v-479c0 -108 -70 -162 -156 -162c-24 0 -45 2 -61 5v67c9 -1 18 -1 29 -1c69 0 105 36 105 125v445h-286v-496c0 -108 -70 -163 -156 -163
c-24 0 -45 3 -61 6v67c8 -1 18 -1 29 -1c69 0 105 36 105 125v462h-91v69h91v27c0 132 81 166 173 166c46 0 79 -10 91 -14v-63c-23 4 -49 8 -86 8c-71 0 -95 -33 -95 -103v-21h286v38c0 150 81 179 173 179c46 0 79 -10 92 -14v-63c-17 3 -40 7 -74 7
c-90 0 -108 -45 -108 -123z" />
    <glyph glyph-name="f_f_l" unicode="ffl" horiz-adv-x="989" 
d="M699 759c106 0 212 -57 212 -196v-563h-84v543c0 105 -54 147 -128 147s-134 -36 -134 -126v-23h173v-69h-173v-479c0 -108 -70 -163 -156 -163c-24 0 -61 5 -61 5v68c9 -1 18 -2 29 -2c69 0 105 37 105 126v445h-286v-496c0 -108 -70 -163 -156 -163c-24 0 -61 5 -61 5
v67c8 0 18 -1 29 -1c69 0 105 37 105 126v462h-91v69h91v32c0 108 69 163 155 163c61 0 97 -12 109 -16v-63c-23 4 -49 8 -86 8c-58 0 -95 -31 -95 -95v-29h286v24c0 119 81 194 217 194z" />
    <glyph glyph-name="f_igrave" unicode="f&#xec;" horiz-adv-x="600" 
d="M326 705c-93 0 -130 -52 -130 -121v-43h326v-541h-84v472h-242v-496c0 -108 -70 -163 -156 -163c-24 0 -45 3 -61 6v67c8 -1 18 -1 29 -1c69 0 105 36 105 125v462h-91v69h91v36c0 164 141 182 251 182l151 -169h-60z" />
    <glyph glyph-name=".notdef" horiz-adv-x="500" 
 />
    <glyph glyph-name="NULL" horiz-adv-x="0" 
 />
    <glyph glyph-name="CR" horiz-adv-x="277" 
 />
    <glyph glyph-name="space" unicode=" " horiz-adv-x="322" 
 />
    <glyph glyph-name="dotlessi" unicode="&#x131;" horiz-adv-x="240" 
d="M78 0v541h83v-541h-83z" />
    <glyph glyph-name="fraction" unicode="&#x2044;" horiz-adv-x="458" 
d="M449 701h65l-483 -701h-65z" />
    <glyph glyph-name="Lslash" unicode="&#x141;" horiz-adv-x="599" 
d="M-6 267v80l91 26v332h86v-307l225 66v-80l-225 -65v-248h391v-71h-477v294z" />
    <glyph glyph-name="lslash" unicode="&#x142;" horiz-adv-x="329" 
d="M-16 265v80l120 35v374h85v-350l128 38v-79l-128 -38v-325h-85v300z" />
    <glyph glyph-name="exclam" unicode="!" horiz-adv-x="227" 
d="M142 202h-56l-15 502h86zM115 98c29 0 52 -23 52 -52s-23 -52 -52 -52s-52 23 -52 52s23 52 52 52z" />
    <glyph glyph-name="quotedbl" unicode="&#x22;" horiz-adv-x="348" 
d="M206 417l18 283h91l-64 -283h-45zM35 417l18 283h91l-64 -283h-45z" />
    <glyph glyph-name="numbersign" unicode="#" horiz-adv-x="680" 
d="M455 525l27 161h63l-27 -161h133v-69h-144l-34 -198h145v-69h-157l-32 -186h-63l31 186h-180l-31 -186h-64l32 186h-124v69h135l34 198h-137v69h149l27 161h64l-28 -161h181zM409 258l34 198h-180l-34 -198h180z" />
    <glyph glyph-name="dollar" unicode="$" horiz-adv-x="641" 
d="M347 635v-245c140 -33 247 -76 247 -198s-99 -195 -247 -200v-63h-45v63c-95 2 -147 14 -249 65l33 66c87 -43 136 -54 216 -57v253c-134 33 -242 74 -242 197c0 112 92 193 242 196v40h45v-41c80 -6 162 -27 218 -54l-36 -68c-47 24 -120 41 -182 46zM147 521
c0 -66 66 -95 155 -119v236c-98 -2 -155 -50 -155 -117zM507 186c0 71 -69 98 -160 122v-242c97 3 160 46 160 120z" />
    <glyph glyph-name="percent" unicode="%" horiz-adv-x="899" 
d="M397 516c0 -122 -79 -195 -177 -195c-97 0 -176 73 -176 195c0 123 79 195 176 195c98 0 177 -72 177 -195zM102 516c0 -85 53 -138 118 -138c66 0 119 53 119 138c0 86 -53 138 -119 138c-65 0 -118 -52 -118 -138zM679 383c97 0 176 -71 176 -194s-79 -195 -176 -195
c-98 0 -177 72 -177 195s79 194 177 194zM679 51c65 0 118 53 118 138s-53 138 -118 138c-66 0 -119 -53 -119 -138s53 -138 119 -138zM659 701h64l-483 -701h-64z" />
    <glyph glyph-name="ampersand" unicode="&#x26;" horiz-adv-x="683" 
d="M594 319l61 -21c-15 -24 -58 -99 -120 -168l92 -88l-51 -47l-88 86c-58 -49 -125 -86 -201 -86c-158 0 -243 80 -243 186c0 79 47 143 156 188c-52 53 -82 99 -82 165c0 101 76 175 182 175c124 0 187 -82 187 -171c0 -72 -47 -149 -171 -194l172 -168
c47 49 86 111 106 143zM300 647c-67 0 -110 -57 -110 -115c0 -62 40 -101 81 -143c99 35 146 81 146 144c0 58 -38 114 -117 114zM287 62c59 0 111 28 155 66l-195 190c-85 -34 -120 -80 -120 -134c0 -62 50 -122 160 -122z" />
    <glyph glyph-name="quotesingle" unicode="'" horiz-adv-x="207" 
d="M51 417l17 283h93l-64 -283h-46z" />
    <glyph glyph-name="parenleft" unicode="(" horiz-adv-x="400" 
d="M135 302c0 -162 89 -288 232 -369l-28 -49c-174 89 -284 231 -284 418s110 330 284 419l28 -49c-143 -81 -232 -208 -232 -370z" />
    <glyph glyph-name="parenright" unicode=")" horiz-adv-x="400" 
d="M265 302c0 162 -88 289 -232 370l29 49c173 -89 283 -232 283 -419s-110 -329 -283 -418l-29 49c144 81 232 207 232 369z" />
    <glyph glyph-name="asterisk" unicode="*" horiz-adv-x="413" 
d="M371 458l-25 -42l-120 76l6 -142h-48l6 142l-121 -76l-23 42l126 65l-127 66l24 42l121 -77l-6 143h48l-6 -143l120 77l24 -42l-126 -66z" />
    <glyph glyph-name="plus" unicode="+" horiz-adv-x="640" 
d="M571 406v-69h-216v-215h-68v215h-216v69h216v215h68v-215h216z" />
    <glyph glyph-name="comma" unicode="," horiz-adv-x="191" 
d="M93 98c18 0 53 -10 53 -66c0 -117 -81 -158 -130 -159l-13 36c28 4 79 31 84 86c-25 3 -45 24 -45 52c0 29 25 51 51 51z" />
    <glyph glyph-name="hyphen" unicode="-" horiz-adv-x="408" 
d="M362 367v-70h-316v70h316z" />
    <glyph glyph-name="period" unicode="." horiz-adv-x="184" 
d="M143 46c0 -29 -23 -52 -52 -52s-52 23 -52 52s23 52 52 52s52 -23 52 -52z" />
    <glyph glyph-name="slash" unicode="/" horiz-adv-x="460" 
d="M-30 -128l443 926h72l-443 -926h-72z" />
    <glyph glyph-name="zero" unicode="0" horiz-adv-x="730" 
d="M366 710c176 0 320 -132 320 -358s-144 -358 -320 -358c-175 0 -320 132 -320 358s145 358 320 358zM366 636c-130 0 -237 -105 -237 -284s107 -284 237 -284s237 105 237 284s-107 284 -237 284z" />
    <glyph glyph-name="one" unicode="1" horiz-adv-x="392" 
d="M236 705h47v-705h-86v624l-151 -34l-17 69z" />
    <glyph glyph-name="two" unicode="2" horiz-adv-x="624" 
d="M199 73h376v-73h-529v35c156 200 447 203 447 409c0 107 -86 189 -185 189c-93 0 -185 -72 -186 -188v-11h-76v16c0 150 122 261 263 261c140 0 263 -114 263 -262c0 -226 -234 -270 -373 -376z" />
    <glyph glyph-name="three" unicode="3" horiz-adv-x="615" 
d="M559 664l-198 -247c129 -12 215 -90 215 -200c0 -140 -111 -224 -278 -224c-102 0 -164 9 -247 46l32 67c73 -31 133 -39 217 -39c116 0 193 58 193 149c0 66 -51 145 -197 147h-34l-16 35l189 234h-364v73h488v-41z" />
    <glyph glyph-name="four" unicode="4" horiz-adv-x="659" 
d="M516 251h107v-72h-107v-179h-84v179h-384l-17 40l420 486h65v-454zM153 251h279v324z" />
    <glyph glyph-name="five" unicode="5" horiz-adv-x="619" 
d="M339 454c152 0 240 -91 240 -237c0 -140 -111 -224 -278 -224c-102 0 -167 8 -249 43l30 67c73 -29 136 -36 221 -36c115 0 193 60 193 155c0 89 -57 159 -179 159c-64 0 -158 -15 -195 -28l-38 22l4 330h459v-74h-385l-1 -206c39 13 112 29 178 29z" />
    <glyph glyph-name="six" unicode="6" horiz-adv-x="664" 
d="M342 455c141 0 276 -72 276 -225c0 -146 -127 -236 -285 -236c-152 0 -276 127 -276 305c0 301 133 412 294 412c102 0 169 -31 231 -73l-38 -66c-50 35 -109 65 -189 65c-132 0 -219 -98 -219 -279c32 54 114 97 206 97zM340 381c-100 0 -193 -52 -193 -147
c0 -75 86 -164 186 -164c130 0 201 68 201 161c0 99 -88 150 -194 150z" />
    <glyph glyph-name="seven" unicode="7" horiz-adv-x="585" 
d="M49 705h503v-41l-339 -664h-93l324 632h-395v73z" />
    <glyph glyph-name="eight" unicode="8" horiz-adv-x="634" 
d="M319 711c130 0 237 -56 237 -181c0 -71 -46 -128 -108 -147c86 -21 148 -92 148 -182c0 -138 -125 -207 -277 -207c-153 0 -277 69 -277 207c0 90 62 162 148 182c-62 18 -108 76 -108 147c0 125 107 181 237 181zM319 639c-88 0 -161 -32 -161 -111
c0 -65 66 -112 161 -112s161 47 161 112c0 79 -73 111 -161 111zM319 68c107 0 194 44 194 135c0 79 -81 136 -194 136s-195 -57 -195 -136c0 -91 88 -135 195 -135z" />
    <glyph glyph-name="nine" unicode="9" horiz-adv-x="663" 
d="M326 250c-141 0 -275 72 -275 225c0 146 121 236 279 236c155 0 281 -127 281 -305c0 -301 -133 -412 -294 -412c-102 0 -169 31 -231 73l38 63c50 -35 109 -62 189 -62c132 0 211 99 219 279c-32 -54 -114 -97 -206 -97zM328 324c100 0 193 60 193 147
c0 75 -86 167 -186 167c-130 0 -201 -71 -201 -164c0 -102 88 -150 194 -150z" />
    <glyph glyph-name="colon" unicode=":" horiz-adv-x="221" 
d="M108 436c-29 0 -52 22 -52 51s23 52 52 52s52 -23 52 -52s-23 -51 -52 -51zM108 98c29 0 52 -23 52 -52s-23 -52 -52 -52s-52 23 -52 52s23 52 52 52z" />
    <glyph glyph-name="semicolon" unicode=";" horiz-adv-x="219" 
d="M108 436c-29 0 -52 22 -52 51s23 52 52 52c28 0 52 -23 52 -52s-24 -51 -52 -51zM107 98c33 0 53 -23 53 -64c0 -92 -45 -159 -130 -161l-12 36c41 4 81 39 83 86c-25 3 -45 25 -45 51c0 29 24 52 51 52z" />
    <glyph glyph-name="less" unicode="&#x3c;" horiz-adv-x="618" 
d="M543 607v-78l-373 -180l373 -179v-78l-484 237v41z" />
    <glyph glyph-name="equal" unicode="=" horiz-adv-x="626" 
d="M73 167v70h478v-70h-478zM73 526h478v-70h-478v70z" />
    <glyph glyph-name="greater" unicode="&#x3e;" horiz-adv-x="619" 
d="M82 92v78l372 179l-372 180v78l484 -237v-41z" />
    <glyph glyph-name="question" unicode="?" horiz-adv-x="540" 
d="M241 711c156 0 258 -84 258 -227c0 -105 -85 -187 -234 -187l-5 -109h-60l-5 144l9 20h28c125 0 192 56 192 133c0 97 -77 154 -181 154c-81 0 -136 -10 -203 -44l-29 65c78 42 135 51 230 51zM228 98c30 0 53 -23 53 -52s-23 -52 -53 -52c-28 0 -51 23 -51 52
s23 52 51 52z" />
    <glyph glyph-name="at" unicode="@" horiz-adv-x="965" 
d="M486 724c242 0 439 -195 439 -437c0 -131 -95 -236 -216 -236c-82 0 -122 40 -122 107v7c-31 -62 -105 -102 -175 -102c-116 0 -192 95 -192 207c0 137 104 262 231 262c77 0 137 -46 162 -112l14 92l70 -11s-46 -302 -46 -307c0 -59 21 -97 75 -97c98 0 157 96 157 189
c0 219 -176 395 -397 395c-222 0 -397 -177 -397 -396s177 -397 397 -397c100 0 192 31 262 91c20 -20 23 -24 26 -27c-77 -67 -178 -107 -288 -107c-243 0 -440 197 -440 440c0 242 197 439 440 439zM588 324c0 77 -56 137 -129 137c-85 0 -164 -81 -164 -183
c0 -80 55 -144 129 -144c86 0 163 85 164 190z" />
    <glyph glyph-name="A" unicode="A" 
d="M629 0l-79 177h-363l-78 -177h-90l326 705h47l327 -705h-90zM368 588l-150 -341h301z" />
    <glyph glyph-name="B" unicode="B" horiz-adv-x="701" 
d="M519 562c0 -41 -16 -87 -52 -114c119 -13 190 -115 190 -225c0 -117 -74 -223 -213 -223h-359v705h278c87 0 156 -62 156 -143zM168 632v-176h192c60 0 82 50 82 87c0 51 -44 89 -106 89h-168zM169 73h235c111 0 164 72 164 158c0 80 -54 160 -163 160h-236v-318z" />
    <glyph glyph-name="C" unicode="C" horiz-adv-x="756" 
d="M423 74c91 0 171 43 222 109l66 -55c-68 -82 -172 -134 -288 -134c-205 0 -371 161 -371 358s166 359 371 359c116 0 220 -53 288 -135l-66 -55c-51 66 -131 110 -222 110c-156 0 -283 -120 -283 -279c0 -158 127 -278 283 -278z" />
    <glyph glyph-name="D" unicode="D" 
d="M685 352c0 -187 -147 -352 -332 -352h-268v705h245c196 0 355 -158 355 -353zM168 77h178c139 0 254 129 254 275c0 153 -121 276 -270 276h-162v-551z" />
    <glyph glyph-name="E" unicode="E" horiz-adv-x="644" 
d="M168 73h427v-73h-510v705h489v-73h-406v-254h344v-72h-344v-233z" />
    <glyph glyph-name="F" unicode="F" horiz-adv-x="628" 
d="M584 632h-416v-313h361v-73h-361v-246h-83v705h499v-73z" />
    <glyph glyph-name="G" unicode="G" horiz-adv-x="791" 
d="M408 338h322v-241c-78 -63 -186 -103 -305 -103c-206 0 -373 161 -373 358s167 358 373 358c116 0 212 -39 279 -101l-54 -59c-55 50 -133 81 -225 81c-158 0 -286 -125 -286 -279c0 -157 128 -282 286 -282c86 0 161 26 219 69v128h-236v71z" />
    <glyph glyph-name="H" unicode="H" 
d="M568 705h84v-705h-84v271h-400v-271h-83v705h83v-361h400v361z" />
    <glyph glyph-name="I" unicode="I" horiz-adv-x="259" 
d="M173 705v-705h-87v705h87z" />
    <glyph glyph-name="J" unicode="J" horiz-adv-x="594" 
d="M434 705h85v-417c0 -173 -79 -294 -250 -294c-125 0 -228 92 -245 213l75 7c16 -81 82 -141 168 -141c110 0 167 82 167 195v437z" />
    <glyph glyph-name="K" unicode="K" horiz-adv-x="698" 
d="M345 361l321 -361h-114l-263 298l-121 -131v-167h-83v705h83v-419l384 419h105z" />
    <glyph glyph-name="L" unicode="L" horiz-adv-x="599" 
d="M171 71h391v-71h-477v705h86v-634z" />
    <glyph glyph-name="M" unicode="M" horiz-adv-x="872" 
d="M742 705h45v-705h-86v510l-265 -416l-265 416v-510h-86v705h45l306 -468z" />
    <glyph glyph-name="N" unicode="N" horiz-adv-x="773" 
d="M603 705h85v-705h-45l-472 544v-544h-86v705h45l473 -544v544z" />
    <glyph glyph-name="O" unicode="O" horiz-adv-x="850" 
d="M424 710c207 0 373 -161 373 -358s-166 -358 -373 -358c-205 0 -372 161 -372 358s167 358 372 358zM424 73c158 0 285 125 285 279s-127 279 -285 279c-157 0 -285 -125 -285 -279s128 -279 285 -279z" />
    <glyph glyph-name="P" unicode="P" horiz-adv-x="660" 
d="M85 705h279c192 0 259 -114 259 -238c0 -179 -118 -251 -286 -251h-166v-216h-86v705zM171 287h159c127 0 203 58 203 175c0 88 -46 170 -181 170h-181v-345z" />
    <glyph glyph-name="R" unicode="R" horiz-adv-x="684" 
d="M550 0l-160 218c-15 -1 -31 -2 -47 -2h-172v-216h-86v705h289c193 0 259 -114 259 -238c0 -125 -58 -201 -157 -232l178 -235h-104zM171 632v-345h169c128 0 204 58 204 175c0 88 -47 170 -181 170h-192z" />
    <glyph glyph-name="S" unicode="S" horiz-adv-x="640" 
d="M340 391c142 -33 250 -76 250 -199c0 -126 -104 -200 -261 -200c-115 0 -167 9 -279 65l32 66c100 -49 153 -57 250 -57c104 0 171 44 171 120c0 74 -75 103 -185 129c-143 34 -261 71 -261 201c0 114 94 195 248 195c93 0 192 -24 257 -55l-36 -68
c-60 29 -153 49 -222 49c-101 0 -161 -48 -161 -116c0 -74 80 -102 197 -130z" />
    <glyph glyph-name="T" unicode="T" horiz-adv-x="660" 
d="M617 705v-73h-242v-632h-87v632h-241v73h570z" />
    <glyph glyph-name="U" unicode="U" horiz-adv-x="755" 
d="M674 705v-422c0 -160 -103 -289 -297 -289c-193 0 -295 128 -295 289v422h84v-404c0 -139 73 -229 211 -229c139 0 214 90 214 229v404h83z" />
    <glyph glyph-name="V" unicode="V" horiz-adv-x="760" 
d="M382 141l256 564h94l-328 -705h-43l-328 705h93z" />
    <glyph glyph-name="W" unicode="W" horiz-adv-x="1117" 
d="M1082 705l-271 -705h-39l-217 563l-217 -563h-39l-272 705h92l202 -546l214 546h40l213 -546l202 546h92z" />
    <glyph glyph-name="X" unicode="X" horiz-adv-x="708" 
d="M357 417l222 288h97l-264 -351l267 -354h-99l-223 290l-224 -290h-99l268 354l-264 351h97z" />
    <glyph glyph-name="Y" unicode="Y" horiz-adv-x="671" 
d="M556 705h99l-276 -463v-242h-86v242l-276 463h98l221 -374z" />
    <glyph glyph-name="Z" unicode="Z" horiz-adv-x="664" 
d="M614 705v-38l-443 -594h448v-73h-572v37l443 595h-419v73h543z" />
    <glyph glyph-name="bracketleft" unicode="[" horiz-adv-x="340" 
d="M311 639h-154v-704h154v-62h-225v828h225v-62z" />
    <glyph glyph-name="backslash" unicode="\" horiz-adv-x="452" 
d="M420 -128l-443 926h71l443 -926h-71z" />
    <glyph glyph-name="bracketright" unicode="]" horiz-adv-x="351" 
d="M40 -65h154v704h-154v62h224v-828h-224v62z" />
    <glyph glyph-name="asciicircum" unicode="^" horiz-adv-x="453" 
d="M103 490h-64l168 215h41l168 -215h-65l-124 160z" />
    <glyph glyph-name="underscore" unicode="_" horiz-adv-x="585" 
d="M588 -31v-51h-591v51h591z" />
    <glyph glyph-name="grave" unicode="`" horiz-adv-x="457" 
d="M284 755l-174 157l94 7l139 -164h-59z" />
    <glyph glyph-name="a" unicode="a" horiz-adv-x="669" 
d="M510 541h83v-541h-83v54c-49 -37 -113 -60 -188 -60c-163 0 -275 130 -275 279c0 148 112 278 275 278c71 0 140 -23 188 -60v50zM510 131v281c-43 41 -104 65 -175 65c-120 0 -208 -93 -208 -204s89 -205 208 -205c72 0 133 24 175 63z" />
    <glyph glyph-name="b" unicode="b" horiz-adv-x="670" 
d="M346 551c154 0 279 -117 279 -279c0 -160 -125 -278 -279 -278c-70 0 -139 22 -187 59v-53h-83v754h83v-260c49 35 113 57 187 57zM334 68c117 0 208 88 208 204c0 115 -91 205 -208 205c-73 0 -134 -24 -175 -63v-281c43 -41 104 -65 175 -65z" />
    <glyph glyph-name="c" unicode="c" horiz-adv-x="583" 
d="M487 144l54 -50c-49 -62 -122 -100 -202 -100c-163 0 -295 125 -295 278c0 154 132 279 295 279c83 0 155 -38 203 -98l-55 -50c-35 45 -88 74 -148 74c-118 0 -213 -92 -213 -205c0 -112 95 -204 213 -204c59 0 113 30 148 76z" />
    <glyph glyph-name="d" unicode="d" horiz-adv-x="670" 
d="M512 754h82v-754h-82v52c-48 -36 -117 -58 -188 -58c-153 0 -279 118 -279 278c0 162 126 279 279 279c73 0 138 -22 188 -57v260zM336 68c71 0 133 24 176 65v281c-42 39 -104 63 -176 63c-116 0 -208 -90 -208 -205c0 -116 92 -204 208 -204z" />
    <glyph glyph-name="e" unicode="e" horiz-adv-x="627" 
d="M581 246h-453c14 -106 105 -179 206 -179c68 0 130 28 172 79l55 -44c-50 -66 -137 -108 -241 -108c-162 0 -275 125 -275 278c0 154 113 279 275 279s262 -117 262 -283c0 -9 -1 -22 -1 -22zM320 483c-103 0 -178 -75 -191 -172h372c-8 98 -68 172 -181 172z" />
    <glyph glyph-name="f" unicode="f" horiz-adv-x="381" 
d="M377 744v-63c-16 3 -39 7 -74 7c-89 0 -107 -42 -107 -126v-21h173v-69h-173v-496c0 -97 -69 -162 -159 -162c-27 0 -43 2 -58 4v67c8 0 18 -1 29 -1c69 0 105 33 105 126v462h-91v69h91v25c0 119 52 193 164 193c35 0 69 -5 100 -15z" />
    <glyph glyph-name="g" unicode="g" horiz-adv-x="670" 
d="M511 541h83v-463c0 -135 -81 -265 -268 -265c-127 0 -151 12 -230 35l16 62c68 -20 108 -32 197 -32c131 0 191 80 198 165c0 5 1 12 1 17c-49 -33 -112 -54 -185 -54c-153 0 -278 116 -278 273s125 272 278 272c71 0 140 -23 188 -59v49zM127 278
c0 -113 92 -198 209 -198c72 0 133 22 175 61v272c-43 40 -105 64 -175 64c-117 0 -209 -88 -209 -199z" />
    <glyph glyph-name="h" unicode="h" horiz-adv-x="637" 
d="M340 551c144 0 232 -78 232 -244v-307h-83v307c0 112 -67 170 -162 170c-71 0 -125 -23 -168 -60v-417h-83v754h83v-262c45 38 109 59 181 59z" />
    <glyph glyph-name="i" unicode="i" horiz-adv-x="240" 
d="M78 0v541h83v-541h-83zM120 631c-29 0 -53 23 -53 52s24 51 53 51c28 0 51 -22 51 -51s-23 -52 -51 -52z" />
    <glyph glyph-name="j" unicode="j" horiz-adv-x="239" 
d="M77 10v531h84v-565c0 -108 -70 -163 -156 -163c-25 0 -45 3 -61 6v67c8 -1 18 -1 28 -1c70 0 105 36 105 125zM118 631c-29 0 -52 23 -52 52s23 51 52 51s52 -22 52 -51s-23 -52 -52 -52z" />
    <glyph glyph-name="k" unicode="k" horiz-adv-x="609" 
d="M381 333l210 -333h-94l-172 270l-166 -157v-113h-83v754h83v-532l329 319h102z" />
    <glyph glyph-name="l" unicode="l" horiz-adv-x="239" 
d="M77 0v754h84v-754h-84z" />
    <glyph glyph-name="m" unicode="m" horiz-adv-x="993" 
d="M537 415c10 -29 15 -64 15 -108v-307h-83v307c0 111 -60 170 -148 170c-68 0 -121 -23 -162 -61v-416h-83v541h83v-52c44 40 105 62 175 62c77 0 139 -27 177 -81c45 51 111 81 185 81c145 0 233 -78 233 -244v-307h-83v307c0 112 -66 170 -162 170
c-61 0 -109 -24 -147 -62z" />
    <glyph glyph-name="n" unicode="n" horiz-adv-x="638" 
d="M340 551c144 0 232 -78 232 -244v-307h-83v307c0 112 -66 170 -162 170c-71 0 -125 -23 -168 -61v-416h-83v541h83v-52c45 40 109 62 181 62z" />
    <glyph glyph-name="o" unicode="o" horiz-adv-x="677" 
d="M338 551c162 0 294 -125 294 -279c0 -153 -132 -278 -294 -278c-163 0 -295 125 -295 278c0 154 132 279 295 279zM338 68c117 0 212 92 212 204c0 113 -95 205 -212 205c-118 0 -213 -92 -213 -205c0 -112 95 -204 213 -204z" />
    <glyph glyph-name="p" unicode="p" horiz-adv-x="672" 
d="M346 551c154 0 279 -117 279 -278s-125 -279 -279 -279c-74 0 -138 22 -187 57v-226h-83v716h83v-49c47 36 117 59 187 59zM334 68c117 0 208 88 208 205c0 114 -91 204 -208 204c-71 0 -133 -24 -175 -65v-281c41 -39 102 -63 175 -63z" />
    <glyph glyph-name="q" unicode="q" horiz-adv-x="672" 
d="M513 541h83v-716h-83v226c-50 -35 -114 -57 -188 -57c-153 0 -278 118 -278 279s125 278 278 278c71 0 140 -23 188 -59v49zM129 273c0 -117 92 -205 209 -205c72 0 132 24 175 63v281c-43 41 -105 65 -175 65c-117 0 -209 -90 -209 -204z" />
    <glyph glyph-name="r" unicode="r" horiz-adv-x="435" 
d="M159 541v-106c34 69 95 115 178 116c20 0 43 -5 66 -16l-6 -81c-28 11 -54 16 -77 16c-103 0 -161 -93 -161 -196v-274h-83v541h83z" />
    <glyph glyph-name="s" unicode="s" horiz-adv-x="529" 
d="M43 44l31 62c63 -25 125 -45 199 -45c100 0 136 44 136 90c0 52 -56 73 -153 93c-118 25 -203 63 -203 154c0 89 83 153 201 153c76 0 142 -17 204 -42l-28 -62c-55 24 -117 36 -178 36c-73 0 -124 -33 -124 -81s51 -69 152 -89c125 -25 206 -64 206 -158
c0 -89 -67 -161 -215 -161c-89 0 -158 19 -228 50z" />
    <glyph glyph-name="t" unicode="t" horiz-adv-x="402" 
d="M378 472h-183v-272c0 -100 34 -134 104 -134c35 0 59 4 77 7v-63c-13 -4 -49 -16 -109 -16c-86 0 -156 55 -156 163v315h-89v69h89v213h84v-213h183v-69z" />
    <glyph glyph-name="u" unicode="u" horiz-adv-x="645" 
d="M486 541h83v-541h-83v56c-47 -40 -114 -62 -187 -62c-144 0 -232 78 -232 244v303h82v-303c0 -112 67 -170 163 -170c72 0 129 22 174 61v412z" />
    <glyph glyph-name="v" unicode="v" horiz-adv-x="612" 
d="M501 541h89l-262 -541h-42l-264 541h89l196 -406z" />
    <glyph glyph-name="w" unicode="w" horiz-adv-x="853" 
d="M753 541h83l-207 -541h-43l-159 416l-159 -416h-43l-209 541h84l154 -406l150 406h45l150 -406z" />
    <glyph glyph-name="x" unicode="x" horiz-adv-x="583" 
d="M293 206l-174 -206h-92l218 273l-217 268h96l169 -206l169 206h96l-217 -268l219 -273h-94z" />
    <glyph glyph-name="y" unicode="y" horiz-adv-x="613" 
d="M498 541h86l-227 -570c-46 -114 -168 -157 -277 -157c-14 0 -27 0 -39 1l9 63h13c99 0 184 33 218 122h-22l-232 541h88l191 -443h18z" />
    <glyph glyph-name="z" unicode="z" horiz-adv-x="582" 
d="M547 500l-380 -432h376v-68h-501v43l378 429h-361v69h488v-41z" />
    <glyph glyph-name="braceleft" unicode="{" horiz-adv-x="414" 
d="M382 707v-56c-88 0 -130 -19 -130 -109v-93c0 -101 -16 -152 -82 -169c66 -15 82 -61 82 -163v-105c0 -89 42 -109 130 -109v-56c-110 0 -196 12 -196 138v87c0 146 -2 177 -153 177v62c151 0 153 38 153 184v74c0 127 86 138 196 138z" />
    <glyph glyph-name="bar" unicode="|" horiz-adv-x="285" 
d="M105 -128v926h66v-926h-66z" />
    <glyph glyph-name="braceright" unicode="}" horiz-adv-x="412" 
d="M35 651v56c109 0 196 -11 196 -138v-74c0 -146 2 -184 152 -184v-62c-150 0 -152 -31 -152 -177v-87c0 -126 -87 -138 -196 -138v56c88 0 129 19 129 109v105c0 102 16 148 83 163c-67 17 -83 68 -83 169v93c0 90 -41 109 -129 109z" />
    <glyph glyph-name="asciitilde" unicode="~" horiz-adv-x="474" 
d="M87 236l-43 5c7 82 49 128 111 128c61 0 116 -46 163 -46c30 0 57 25 67 72l44 -6c-8 -83 -53 -127 -105 -127c-59 0 -118 46 -162 46c-39 0 -63 -28 -75 -72z" />
    <glyph glyph-name="quotesinglbase" unicode="&#x201a;" horiz-adv-x="216" 
d="M102 98c35 0 52 -28 52 -70c0 -62 -34 -132 -128 -132l-13 35c48 1 82 20 84 69c-24 3 -43 23 -43 49c0 27 23 49 48 49z" />
    <glyph glyph-name="florin" unicode="&#x192;" horiz-adv-x="553" 
d="M529 730v-64c-15 7 -32 15 -67 15c-67 0 -110 -36 -126 -119l-13 -67h149v-68h-162l-42 -224c-20 -108 -102 -163 -187 -163c-28 0 -41 7 -51 9v67c10 -3 20 -5 31 -5c70 0 115 43 131 133l35 183h-102v68h115l18 94c21 108 102 163 188 163c55 0 78 -17 83 -22z" />
    <glyph glyph-name="quotedblbase" unicode="&#x201e;" horiz-adv-x="377" 
d="M105 98c35 0 51 -28 51 -70c0 -62 -33 -132 -128 -132l-12 35c47 1 81 20 83 69c-24 3 -42 23 -42 49c0 27 22 49 48 49zM282 98c35 0 51 -28 51 -70c0 -62 -33 -132 -128 -132l-12 35c47 1 81 20 83 69c-24 3 -42 23 -42 49c0 27 22 49 48 49z" />
    <glyph glyph-name="ellipsis" unicode="&#x2026;" horiz-adv-x="603" 
d="M90 98c29 0 52 -23 52 -52s-23 -52 -52 -52c-28 0 -52 23 -52 52s24 52 52 52zM297 98c29 0 52 -23 52 -52s-23 -52 -52 -52c-28 0 -52 23 -52 52s24 52 52 52zM508 98c29 0 52 -23 52 -52s-23 -52 -52 -52s-52 23 -52 52s23 52 52 52z" />
    <glyph glyph-name="dagger" unicode="&#x2020;" horiz-adv-x="410" 
d="M363 586v-52l-113 5h-23v-123l4 -153h-49l5 153l-1 123h-27l-111 -5v52l111 -5h26l-3 113h49l-3 -113h21z" />
    <glyph glyph-name="daggerdbl" unicode="&#x2021;" horiz-adv-x="430" 
d="M236 255l1 -101h21l115 5v-51l-115 4h-21l4 -112h-49l3 112h-23l-114 -5v52l113 -5h25v101l-2 96l2 89v101h-27l-111 -5v52l110 -5h27l-3 112h49l-4 -112h21l115 5v-52l-114 5h-22v-101l2 -89z" />
    <glyph glyph-name="circumflex" unicode="&#x2c6;" horiz-adv-x="500" 
d="M78 755l143 143h54l144 -143h-67l-104 97l-104 -97h-66z" />
    <glyph glyph-name="perthousand" unicode="&#x2030;" horiz-adv-x="1281" 
d="M386 516c0 -122 -79 -195 -176 -195c-98 0 -177 73 -177 195c0 123 79 195 177 195c97 0 176 -72 176 -195zM91 516c0 -85 53 -138 119 -138c65 0 118 53 118 138c0 86 -53 138 -118 138c-66 0 -119 -52 -119 -138zM668 383c97 0 176 -71 176 -194s-79 -195 -176 -195
c-98 0 -177 72 -177 195s79 194 177 194zM668 51c65 0 118 53 118 138s-53 138 -118 138c-66 0 -119 -53 -119 -138s53 -138 119 -138zM1062 383c98 0 177 -71 177 -194s-79 -195 -177 -195c-97 0 -176 72 -176 195s79 194 176 194zM1062 51c66 0 119 53 119 138
s-53 138 -119 138c-65 0 -118 -53 -118 -138s53 -138 118 -138zM648 701h64l-483 -701h-64z" />
    <glyph glyph-name="guilsinglleft" unicode="&#x2039;" horiz-adv-x="311" 
d="M206 9l-174 257l174 257l54 -39l-152 -218l152 -217z" />
    <glyph glyph-name="OE" unicode="&#x152;" horiz-adv-x="1032" 
d="M52 352c0 196 163 353 364 353h547v-73h-406v-254h344v-72h-344v-233h427v-73h-576c-197 0 -356 159 -356 352zM473 73v559h-58c-148 0 -278 -103 -278 -280c0 -184 130 -279 278 -279h58z" />
    <glyph glyph-name="quoteleft" unicode="&#x2018;" horiz-adv-x="212" 
d="M103 503c-35 0 -51 28 -51 70c0 62 33 132 128 132l12 -35c-47 -1 -81 -20 -83 -69c24 -3 42 -23 42 -49c0 -27 -22 -49 -48 -49z" />
    <glyph glyph-name="quoteright" unicode="&#x2019;" horiz-adv-x="201" 
d="M113 705c36 0 52 -28 52 -69c0 -63 -34 -133 -128 -133l-12 35c47 2 81 21 83 69c-24 4 -43 24 -43 49c0 28 23 49 48 49z" />
    <glyph glyph-name="quotedblleft" unicode="&#x201c;" horiz-adv-x="385" 
d="M274 502c-35 0 -52 28 -52 69c0 63 34 133 129 133l12 -35c-48 -2 -81 -21 -84 -69c25 -4 43 -24 43 -49c0 -28 -23 -49 -48 -49zM97 502c-35 0 -52 28 -52 69c0 63 34 133 129 133l12 -35c-48 -2 -82 -21 -84 -69c24 -4 43 -24 43 -49c0 -28 -23 -49 -48 -49z" />
    <glyph glyph-name="quotedblright" unicode="&#x201d;" horiz-adv-x="380" 
d="M115 705c35 0 52 -28 52 -69c0 -63 -34 -133 -129 -133l-12 35c48 2 81 21 84 69c-25 4 -43 24 -43 49c0 28 23 49 48 49zM292 705c35 0 52 -28 52 -69c0 -63 -34 -133 -129 -133l-12 35c48 2 82 21 84 69c-24 4 -43 24 -43 49c0 28 23 49 48 49z" />
    <glyph glyph-name="bullet" unicode="&#x2022;" horiz-adv-x="410" 
d="M317 352c0 -63 -50 -113 -112 -113c-63 0 -113 50 -113 113c0 62 50 112 113 112c62 0 112 -50 112 -112z" />
    <glyph glyph-name="endash" unicode="&#x2013;" horiz-adv-x="528" 
d="M481 367v-70h-435v70h435z" />
    <glyph glyph-name="emdash" unicode="&#x2014;" horiz-adv-x="898" 
d="M850 367v-70h-804v70h804z" />
    <glyph glyph-name="tilde" unicode="&#x2dc;" horiz-adv-x="500" 
d="M99 752l-44 5c7 82 49 128 111 128c61 0 116 -45 163 -45c30 0 57 25 67 71l44 -6c-8 -82 -53 -127 -105 -127c-59 0 -118 46 -162 46c-39 0 -63 -27 -74 -72z" />
    <glyph glyph-name="trademark" unicode="&#x2122;" horiz-adv-x="695" 
d="M287 699v-39h-112v-273h-46v273h-113v39h271zM644 699h20v-312h-44v212l-120 -169l-120 169v-212h-44v312h21l143 -200z" />
    <glyph glyph-name="guilsinglright" unicode="&#x203a;" horiz-adv-x="296" 
d="M87 523l174 -257l-174 -257l-54 40l152 217l-152 218z" />
    <glyph glyph-name="oe" unicode="&#x153;" horiz-adv-x="1131" 
d="M1085 246h-453c14 -106 105 -179 206 -179c68 0 130 28 172 79l55 -44c-50 -66 -137 -108 -241 -108c-108 0 -195 56 -240 138c-45 -82 -138 -138 -248 -138c-162 0 -292 125 -292 278c0 154 130 279 293 279c110 0 202 -54 247 -139c45 83 131 139 240 139
c162 0 262 -117 262 -283c0 -9 -1 -22 -1 -22zM338 67c112 0 207 92 207 205s-94 205 -208 205c-119 0 -211 -91 -211 -205c0 -113 94 -205 212 -205zM824 483c-103 0 -178 -75 -191 -172h372c-8 98 -68 172 -181 172z" />
    <glyph glyph-name="exclamdown" unicode="&#xa1;" horiz-adv-x="233" 
d="M86 502h56l15 -502h-86zM115 606c-29 0 -52 23 -52 52s23 52 52 52s52 -23 52 -52s-23 -52 -52 -52z" />
    <glyph glyph-name="cent" unicode="&#xa2;" horiz-adv-x="575" 
d="M379 569l-83 -410c15 -3 30 -4 47 -4c55 4 104 32 139 75l53 -47c-49 -58 -121 -94 -200 -96c-18 0 -36 1 -53 5l-18 -92h-59l21 104c-112 40 -192 143 -192 263c0 170 145 280 302 280l14 67h58l-15 -76c57 -12 106 -43 143 -85l-54 -46c-27 31 -63 54 -103 62zM108 367
c0 -87 54 -162 132 -194l82 408c-121 -6 -214 -99 -214 -214z" />
    <glyph glyph-name="sterling" unicode="&#xa3;" horiz-adv-x="639" 
d="M604 71v-71h-561v41l108 27c-7 51 -19 140 -25 216h-76v65h72c-2 25 -3 49 -3 68c0 212 109 294 254 294c94 0 176 -51 219 -127l-57 -46c-31 56 -90 95 -160 95c-115 0 -170 -80 -170 -203c0 -23 1 -51 3 -81h286v-65h-281c8 -72 19 -159 26 -213h365z" />
    <glyph glyph-name="Euro" unicode="&#x20ac;" horiz-adv-x="704" 
d="M425 73c87 0 150 41 197 102l60 -49c-60 -82 -153 -132 -257 -132c-152 0 -280 108 -315 267h-73v45h66c-2 15 -3 30 -3 45s1 29 3 44h-66v46h73c34 158 163 267 315 267c104 0 197 -50 257 -132l-60 -50c-47 62 -110 103 -197 103c-106 0 -196 -80 -224 -188h262v-46
h-274c-2 -15 -3 -29 -3 -44s1 -30 3 -45h274v-45h-262c29 -109 119 -188 224 -188z" />
    <glyph glyph-name="yen" unicode="&#xa5;" horiz-adv-x="708" 
d="M668 705l-232 -389h159v-59h-193l-9 -20v-22h202v-59h-202v-156h-87v156h-202v59h202v22l-9 20h-193v59h158l-231 389h98l220 -374l220 374h99z" />
    <glyph glyph-name="section" unicode="&#xa7;" horiz-adv-x="626" 
d="M544 326c0 -45 -38 -83 -68 -95c23 -17 36 -41 36 -78c0 -82 -69 -158 -205 -158c-84 0 -152 11 -229 49l32 58c55 -26 99 -43 186 -43c93 0 138 47 138 88s-39 53 -162 83c-90 22 -202 43 -202 135c0 42 36 83 85 99c-38 21 -62 55 -62 101c0 97 94 147 197 147
c83 0 170 -24 228 -44l-26 -63c-56 19 -135 42 -203 42c-62 0 -121 -31 -121 -88c0 -55 82 -70 177 -93c125 -30 199 -51 199 -140zM340 405c-43 10 -89 20 -129 34c-40 -13 -75 -43 -75 -67c0 -68 176 -79 280 -114c20 4 61 29 61 66c0 35 -32 56 -137 81z" />
    <glyph glyph-name="dieresis" unicode="&#xa8;" horiz-adv-x="500" 
d="M337 856c24 0 45 -20 45 -45s-21 -45 -45 -45c-26 0 -46 20 -46 45s20 45 46 45zM164 856c25 0 45 -20 45 -45s-20 -45 -45 -45s-45 20 -45 45s20 45 45 45z" />
    <glyph glyph-name="copyright" unicode="&#xa9;" horiz-adv-x="830" 
d="M417 714c200 0 356 -165 356 -360c0 -194 -157 -360 -358 -360s-357 165 -357 360c0 194 157 360 359 360zM740 354c0 179 -141 327 -323 327c-184 0 -326 -149 -326 -328c0 -178 141 -327 324 -327s325 150 325 328zM418 195c48 0 91 24 118 61l41 -34
c-37 -48 -95 -78 -159 -78c-113 0 -205 94 -205 210s92 209 205 209c64 0 122 -30 159 -78l-41 -34c-27 37 -70 61 -118 61c-83 0 -150 -71 -150 -158c0 -88 67 -159 150 -159z" />
    <glyph glyph-name="guillemotleft" unicode="&#xab;" horiz-adv-x="552" 
d="M451 9l-174 257l174 257l55 -39l-153 -218l153 -217zM222 9l-174 257l174 257l55 -39l-153 -218l153 -217z" />
    <glyph glyph-name="registered" unicode="&#xae;" horiz-adv-x="830" 
d="M417 714c200 0 357 -165 357 -360c0 -194 -158 -360 -359 -360c-200 0 -357 165 -357 360c0 194 158 360 359 360zM740 354c0 179 -140 327 -323 327c-184 0 -326 -149 -326 -328c0 -178 141 -327 324 -327c184 0 325 150 325 328zM593 180l-39 -36l-112 135
c-7 -1 -16 -1 -24 -1h-97v-124h-55v406h167c111 0 149 -65 149 -136c0 -69 -30 -110 -81 -130zM321 513v-192h93c69 0 111 33 111 98c0 49 -25 94 -99 94h-105z" />
    <glyph glyph-name="macron" unicode="&#xaf;" horiz-adv-x="500" 
d="M92 782v55h316v-55h-316z" />
    <glyph glyph-name="degree" unicode="&#xb0;" horiz-adv-x="472" 
d="M236 364c-99 0 -182 80 -182 178c0 97 86 178 182 178s182 -81 182 -180c0 -96 -83 -176 -182 -176zM236 412c72 0 132 58 132 129c0 72 -62 131 -132 131c-71 0 -132 -59 -132 -131c0 -71 60 -129 132 -129z" />
    <glyph glyph-name="acute" unicode="&#xb4;" horiz-adv-x="500" 
d="M386 912l-174 -157h-58l139 164z" />
    <glyph glyph-name="paragraph" unicode="&#xb6;" horiz-adv-x="565" 
d="M277 700h219v-700h-63v625h-69v-625h-63v258h-21c-146 0 -252 77 -252 220c0 144 98 222 249 222zM301 338v287h-20c-91 0 -164 -48 -164 -141c0 -89 75 -146 162 -146h22z" />
    <glyph glyph-name="periodcentered" unicode="&#xb7;" horiz-adv-x="203" 
d="M151 313c0 -29 -23 -52 -52 -52s-52 23 -52 52s23 52 52 52s52 -23 52 -52z" />
    <glyph glyph-name="cedilla" unicode="&#xb8;" horiz-adv-x="429" 
d="M167 -76l55 77h53l-28 -57c25 0 48 -21 48 -58c-3 -34 -31 -73 -105 -73c-34 0 -66 6 -66 6l1 34c12 -3 32 -5 46 -5c44 0 66 20 66 43c0 25 -33 33 -70 33z" />
    <glyph glyph-name="guillemotright" unicode="&#xbb;" horiz-adv-x="550" 
d="M509 266l-174 -257l-54 40l152 217l-152 218l54 39zM281 266l-174 -257l-55 40l153 217l-153 218l55 39z" />
    <glyph glyph-name="questiondown" unicode="&#xbf;" horiz-adv-x="540" 
d="M299 -7c-156 0 -258 84 -258 227c0 105 85 187 234 187l5 109h60l5 -144l-9 -20h-28c-125 0 -192 -56 -192 -133c0 -97 77 -154 181 -154c81 0 136 10 203 44l29 -65c-78 -42 -135 -51 -230 -51zM312 606c-30 0 -53 23 -53 52s23 52 53 52c28 0 51 -23 51 -52
s-23 -52 -51 -52z" />
    <glyph glyph-name="AE" unicode="&#xc6;" horiz-adv-x="1008" 
d="M532 73h427v-73h-510v177h-255l-91 -177h-91l369 705h557v-73h-406v-254h344v-72h-344v-233zM423 626l-196 -379h222v379h-26z" />
    <glyph glyph-name="Eth" unicode="&#xd0;" horiz-adv-x="766" 
d="M16 318v69h98v318h245c196 0 355 -158 355 -353c0 -187 -147 -352 -332 -352h-268v318h-98zM197 77h178c139 0 254 129 254 275c0 153 -121 276 -270 276h-162v-241h182v-69h-182v-241z" />
    <glyph glyph-name="Oslash" unicode="&#xd8;" horiz-adv-x="850" 
d="M87 0l80 93c-71 65 -115 157 -115 259c0 197 167 358 372 358c81 0 156 -25 217 -68l54 63h75l-85 -98c68 -65 112 -155 112 -255c0 -197 -166 -358 -373 -358c-79 0 -152 24 -212 65l-51 -59h-74zM139 352c0 -76 33 -144 84 -193l364 420c-46 33 -102 52 -163 52
c-157 0 -285 -125 -285 -279zM424 73c158 0 285 125 285 279c0 73 -31 141 -81 189l-362 -419c45 -31 99 -49 158 -49z" />
    <glyph glyph-name="Thorn" unicode="&#xde;" horiz-adv-x="660" 
d="M85 0v705h85v-104h193c179 0 259 -102 259 -237c0 -172 -116 -247 -278 -247h-174v-117h-85zM170 188h172c115 0 194 54 194 175c0 93 -50 166 -178 166h-188v-341z" />
    <glyph glyph-name="germandbls" unicode="&#xdf;" horiz-adv-x="648" 
d="M448 420c102 -25 154 -112 154 -192c0 -153 -111 -234 -248 -234c-33 0 -65 4 -93 13l6 70c22 -7 49 -11 77 -11c96 0 176 54 176 162c0 73 -56 152 -170 152h-23v65h15c63 2 113 49 113 119c0 81 -64 127 -150 127c-87 0 -146 -72 -146 -176v-686h-83v673
c0 161 103 258 228 258c133 0 230 -70 230 -199c0 -68 -37 -119 -86 -141z" />
    <glyph glyph-name="ae" unicode="&#xe6;" horiz-adv-x="1120" 
d="M595 0h-82v54c-50 -37 -114 -60 -188 -60c-154 0 -278 118 -278 279s124 278 278 278c70 0 139 -23 188 -60v50h82v-93c47 59 121 103 210 103c179 0 270 -127 270 -285c0 -6 0 -13 -1 -20h-458c14 -106 108 -179 209 -179c68 0 130 28 172 79l55 -44
c-48 -64 -131 -108 -230 -108c-103 0 -179 40 -227 102v-96zM513 131v281c-43 41 -105 66 -175 66c-118 0 -211 -91 -211 -205c0 -117 93 -206 211 -206c71 0 132 25 175 64zM811 483c-103 0 -181 -75 -194 -172h375c-8 98 -68 172 -181 172z" />
    <glyph glyph-name="eth" unicode="&#xf0;" horiz-adv-x="659" 
d="M202 754h94l81 -82l136 47l31 -44l-131 -46c108 -116 206 -247 206 -379c0 -140 -134 -256 -294 -256c-163 0 -295 119 -295 262c0 129 113 244 277 244c58 0 118 -15 163 -51c-51 74 -93 116 -131 154l-164 -57l-33 44l162 57zM325 65c117 0 212 87 212 195
c0 111 -106 171 -212 171c-118 0 -213 -71 -213 -175s95 -191 213 -191z" />
    <glyph glyph-name="oslash" unicode="&#xf8;" horiz-adv-x="677" 
d="M63 0l67 76c-54 50 -87 119 -87 196c0 154 132 279 295 279c62 0 121 -19 169 -51l40 46h66l-69 -77c55 -50 88 -120 88 -197c0 -153 -132 -278 -294 -278c-63 0 -122 20 -169 51l-41 -45h-65zM338 68c117 0 212 92 212 204c0 53 -23 101 -61 136l-268 -304
c32 -23 73 -36 117 -36zM125 272c0 -53 23 -101 60 -135l269 304c-33 23 -73 36 -116 36c-118 0 -213 -92 -213 -205z" />
    <glyph glyph-name="thorn" unicode="&#xfe;" horiz-adv-x="672" 
d="M346 551c154 0 279 -117 279 -278s-125 -279 -279 -279c-74 0 -138 22 -187 57v-226h-83v929h83v-262c47 36 117 59 187 59zM334 68c117 0 208 88 208 205c0 114 -91 204 -208 204c-71 0 -133 -24 -175 -65v-281c41 -39 102 -63 175 -63z" />
    <glyph glyph-name="intelligentdesign" horiz-adv-x="967" 
d="M652 619c67 -27 114 -93 114 -169c0 -77 -47 -143 -114 -170c-27 -67 -93 -114 -170 -114s-142 47 -170 114c-67 27 -114 93 -114 170c0 76 47 142 114 169c28 67 93 114 170 114s142 -47 170 -114zM616 471c0 65 -49 120 -112 131v-131h112zM504 297
c63 12 112 66 112 131h-112v-131zM461 294v134h-69v-134h69zM461 471v134h-69v-134h69zM286 111c26 0 47 -20 47 -45s-21 -46 -47 -46s-47 21 -47 46s21 45 47 45zM678 48c4 -4 9 -7 15 -10l-9 -21c-13 5 -23 13 -32 24h-15v-19h-24v88h41c27 0 36 -16 36 -34
c0 -12 -4 -22 -12 -28zM604 66c0 -24 -18 -43 -41 -44h-33v88h30c25 0 44 -20 44 -44zM492 64v46h24v-88h-11l-13 12l-34 33v-45h-24v88h11l13 -13zM398 109h24v-52c0 -15 -8 -29 -24 -34c-5 -2 -10 -3 -17 -3c-6 0 -12 1 -17 3c-13 4 -20 14 -23 25c0 3 -1 6 -1 9v52h24
v-46c0 -16 6 -21 17 -21s17 5 17 21v46zM732 77l18 32h27l-33 -58v-29h-24v29l-33 58h27zM234 110v-20h-18v-32h17v-17h-17v-19h-24v19h-5v17h5v52h42zM286 42c12 0 22 11 22 24s-10 23 -22 23c-13 0 -23 -10 -23 -23s10 -24 23 -24zM637 -114c7 -3 13 -11 13 -20
c0 -7 -4 -13 -9 -17c-4 -2 -8 -4 -12 -4h-12v42h12c3 0 5 0 8 -1zM561 43c11 0 19 10 19 23c0 12 -9 22 -20 22h-6v-45h7zM907 -144l10 -11h-6l-9 10s-1 -1 -2 -1h-6v-9h-5v42h11c4 0 8 -1 10 -4c4 -3 6 -7 6 -12s-2 -10 -6 -13c-1 0 -2 -1 -3 -2zM650 90h-13v-32h11
c9 0 13 4 16 9c0 2 1 4 1 7c0 8 -4 16 -15 16zM629 -150c9 0 16 7 16 16c0 10 -7 17 -16 17h-8v-33h8zM87 -145l10 33h5l-14 -42h-4l-8 29c-1 3 -1 5 -1 5s-1 -2 -2 -5l-7 -29h-5l-13 42h4l10 -33c1 -2 1 -4 1 -4s1 2 1 5l8 32h5l8 -32c1 -3 1 -5 1 -5s1 2 1 4zM209 -145
l10 33h5l-14 -42h-4l-8 29c-1 3 -1 5 -1 5s-1 -2 -2 -5l-7 -29h-5l-13 42h4l10 -33c1 -2 1 -4 1 -4s1 2 1 5l8 32h5l8 -32c1 -3 1 -5 1 -5s1 2 1 4zM147 -145l10 33h5l-14 -42h-4l-8 29c-1 3 -1 5 -1 5s-1 -2 -1 -5l-8 -29h-5l-13 42h4l10 -33c1 -2 1 -4 1 -4s1 2 2 5l8 32
h4l8 -32c1 -3 1 -5 1 -5c1 0 1 2 1 4zM817 -146v33h5v-42h-5l-22 33c-1 1 -2 2 -2 3v-36h-4v42h4l22 -31c1 -1 2 -2 2 -3v1zM565 -113h5v-42h-5l-22 33c-1 1 -2 2 -2 3v-36h-4v42h4l22 -31c1 -2 2 -3 2 -4v35zM865 -142v4h15v-11c-2 -2 -7 -6 -17 -6c-12 0 -22 9 -22 21
s10 22 22 22c6 0 12 -3 16 -7l-4 -3c-3 4 -7 6 -12 6c-10 0 -17 -8 -17 -18c0 -9 7 -17 17 -17c5 0 9 1 12 4v5h-10zM288 -113h4v-42h-4l-23 33l-2 3v-36h-4v42h4l22 -31l3 -4v35zM765 -142v4h15v-11c-1 -2 -7 -6 -16 -6c-13 0 -22 9 -22 21s9 22 21 22c6 0 12 -3 16 -7
l-3 -3c-3 4 -8 6 -13 6c-9 0 -17 -8 -17 -18c0 -9 7 -17 17 -17c5 0 9 1 12 4v5h-10zM479 -142v4h14v-11c-1 -2 -6 -6 -16 -6c-13 0 -22 9 -22 21s10 22 21 22c7 0 12 -3 16 -7l-3 -3c-3 4 -8 6 -13 6c-9 0 -17 -8 -17 -18c0 -9 8 -17 18 -17c4 0 8 1 12 4v5h-10zM658 -113
h26v-4h-22v-18h20v-4h-20v-11h23v-5h-27v42zM502 -113h26v-4h-22v-18h20v-4h-20v-11h22v-5h-26v42zM341 -113h26v-4h-22v-18h20v-4h-20v-11h22v-5h-26v42zM894 -142h6c1 0 3 1 4 1c5 2 8 7 8 12c0 7 -6 12 -12 12h-6v-25zM709 -131c8 -4 11 -7 11 -12c0 -7 -6 -12 -13 -12
s-13 4 -15 9l3 2c2 -4 6 -7 12 -7c4 0 8 3 8 8c0 3 -1 6 -7 8c-10 4 -13 7 -13 12c0 6 5 11 11 11c5 0 9 -3 11 -7l-3 -2c-2 3 -4 5 -8 5c-3 0 -7 -3 -7 -7s4 -6 10 -8zM314 -117h-13v4h30v-4h-13v-38h-4v38zM591 -117h-13v4h30v-4h-13v-38h-4v38zM376 -113h4v-37h20v-5h-24
v42zM409 -113h4v-37h20v-5h-24v42zM244 -113h4v-42h-4v42zM729 -113h4v-42h-4v42zM442 -113h4v-42h-4v42zM831 -152c0 2 1 4 3 4s4 -2 4 -4s-2 -3 -4 -3s-3 1 -3 3zM226 -152c0 2 2 4 3 4c2 0 4 -2 4 -4s-2 -3 -4 -3c-1 0 -3 1 -3 3z" />
    <glyph glyph-name="uni00AD" unicode="&#xad;" horiz-adv-x="408" 
d="M362 367v-70h-316v70h316z" />
    <glyph glyph-name="onesuperior" unicode="&#xb9;" horiz-adv-x="357" 
d="M216 705h23v-406h-54v352l-92 -20l-11 44z" />
    <glyph glyph-name="threesuperior" unicode="&#xb3;" horiz-adv-x="415" 
d="M344 680l-116 -143c71 -9 124 -48 124 -113c0 -82 -65 -131 -163 -131c-64 0 -102 6 -155 30l20 43c47 -20 84 -26 136 -26c62 0 109 31 109 84c0 43 -42 76 -113 76h-21l-11 22l108 135h-207v47h289v-24z" />
    <glyph glyph-name="twosuperior" unicode="&#xb2;" horiz-adv-x="415" 
d="M145 347h216v-48h-315v24c71 114 261 124 261 234c0 61 -50 108 -109 108c-27 0 -55 -11 -75 -34c-17 -18 -28 -43 -28 -74v-6h-49v9c0 90 70 155 153 155c85 0 159 -66 159 -155c0 -133 -140 -140 -213 -213z" />
    <glyph glyph-name="KB" unicode="&#xa4;" horiz-adv-x="973" 
d="M651 619c67 -27 114 -93 114 -169c0 -77 -47 -143 -114 -170c-27 -67 -93 -114 -169 -114c-77 0 -143 47 -170 114c-67 27 -114 93 -114 170c0 76 47 142 114 169c27 67 93 114 170 114c76 0 142 -47 169 -114zM503 294h35c42 0 77 35 77 78c0 22 -9 42 -24 56h-88v-134z
M503 471h88c15 14 24 34 24 56c0 43 -35 78 -77 78h-35v-134zM391 363l69 -69v134h-112v-134h43v69zM348 471h112v134l-69 -69v69h-43v-134zM777 75c10 -4 17 -14 17 -26c0 -14 -9 -27 -27 -27h-47v88h39c19 0 26 -9 26 -19c0 -7 -3 -12 -8 -16zM690 66
c0 -24 -18 -43 -41 -44h-33v88h30c24 0 44 -20 44 -44zM159 66c0 -24 -18 -43 -42 -44h-32v88h30c24 0 44 -20 44 -44zM504 64v46h24v-88h-11l-13 12l-34 33v-45h-24v88h11l13 -13zM437 66v-33c-7 -5 -15 -9 -25 -11c-4 -1 -9 -2 -14 -2c-26 0 -47 21 -47 46s21 45 47 45
c15 0 27 -5 36 -13l-16 -16c-5 4 -12 7 -20 7c-12 0 -22 -10 -22 -23c0 -14 10 -25 22 -25c5 0 10 2 14 4v4h-16v17h41zM238 29l9 18c11 -5 20 -7 30 -7c7 0 10 3 10 6v1c0 3 -3 5 -14 8c-19 4 -33 9 -33 28c0 16 12 28 33 28c15 0 27 -4 36 -7l-10 -19c-8 3 -18 6 -26 6
c-6 0 -9 -3 -9 -6c0 -4 3 -6 15 -9c20 -4 33 -11 33 -27c0 -18 -14 -29 -36 -29c-15 0 -24 2 -38 9zM563 61v-20h42v-19h-66v88h64v-20h-40v-12h27v-17h-27zM190 61v-20h42v-19h-66v88h63v-20h-39v-12h26v-17h-26zM833 77l18 32h28l-34 -58v-29h-24v29l-33 58h27zM344 22
h-24v88h24v-88zM636 -114c8 -3 13 -11 13 -20c0 -7 -3 -13 -9 -17c-3 -2 -7 -4 -12 -4h-12v42h12c3 0 6 0 8 -1zM115 43c11 0 20 10 20 23c0 12 -9 22 -20 22h-7v-45h7zM647 43c11 0 19 10 19 23c0 12 -9 22 -20 22h-6v-45h7zM906 -144l10 -11h-6l-8 10c-1 0 -2 -1 -3 -1h-6
v-9h-4v42h10c4 0 8 -1 11 -4s6 -7 6 -12s-3 -10 -6 -13c-1 0 -2 -1 -4 -2zM628 -150c9 0 17 7 17 16c0 10 -8 17 -17 17h-7v-33h7zM147 -145l10 33h4l-13 -42h-5l-7 29c-1 3 -2 5 -2 5s0 -2 -1 -5l-8 -29h-4l-14 42h5l10 -33c0 -2 1 -4 1 -4s0 2 1 5l8 32h5l8 -32
c0 -3 1 -5 1 -5s0 2 1 4zM209 -145l10 33h4l-13 -42h-5l-8 29c0 3 -1 5 -1 5s0 -2 -1 -5l-8 -29h-4l-14 42h5l10 -33c0 -2 1 -4 1 -4s0 2 1 5l8 32h4l8 -32c1 -3 2 -5 2 -5s0 2 1 4zM87 -145l10 33h4l-13 -42h-5l-8 29c0 3 -1 5 -1 5s0 -2 -1 -5l-8 -29h-4l-14 42h5l10 -33
c0 -2 0 -4 1 -4c0 0 0 2 1 5l8 32h4l8 -32c1 -3 2 -5 2 -5s0 2 1 4zM565 -113h4v-42h-4l-23 33c-1 1 -1 1 -1 2v-1v-34h-5v42h5l21 -31l3 -3v34zM817 -113h4v-42h-4l-23 33c0 1 -1 2 -1 3v-36h-4v42h4l22 -31c1 -2 2 -3 2 -4v35zM287 -113h4v-42h-4l-22 33c-1 1 -2 2 -2 3
v-36h-4v42h4l22 -31c0 -1 1 -2 2 -3v34zM478 -142v4h15v-11c-2 -2 -7 -6 -17 -6c-12 0 -22 9 -22 21s10 22 22 22c6 0 12 -3 16 -7l-3 -3c-4 4 -8 6 -13 6c-9 0 -17 -8 -17 -18c0 -9 7 -17 17 -17c5 0 9 1 12 4v5h-10zM765 -142v4h15v-11c-2 -2 -7 -6 -17 -6
c-13 0 -22 9 -22 21s10 22 22 22c6 0 12 -3 16 -7l-4 -3c-3 4 -7 6 -12 6c-10 0 -17 -8 -17 -18c0 -9 7 -17 17 -17c4 0 9 1 12 4v5h-10zM743 41h11c11 0 15 5 15 11c0 7 -6 10 -18 10h-8v-21zM864 -142v4h15v-11c-1 -2 -6 -6 -16 -6c-13 0 -22 9 -22 21s9 22 21 22
c7 0 12 -3 16 -7l-3 -3c-3 4 -8 6 -13 6c-9 0 -17 -8 -17 -18c0 -9 8 -17 17 -17c5 0 9 1 13 4v5h-11zM658 -113h25v-4h-21v-18h20v-4h-20v-11h22v-5h-26v42zM502 -113h25v-4h-21v-18h20v-4h-20v-11h22v-5h-26v42zM341 -113h25v-4h-21v-18h20v-4h-20v-11h22v-5h-26v42z
M893 -142h6c2 0 3 1 5 1c4 2 7 7 7 12c0 7 -5 12 -12 12h-6v-25zM709 -131c8 -4 10 -7 10 -12c0 -7 -6 -12 -13 -12s-13 4 -14 9l3 2c1 -4 6 -7 11 -7s8 3 8 8c0 3 -1 6 -7 8c-9 4 -13 7 -13 12c0 6 6 11 12 11c5 0 8 -3 10 -7l-3 -2c-1 3 -4 5 -7 5c-4 0 -7 -3 -7 -7
s3 -6 10 -8zM313 -117h-12v4h30v-4h-13v-38h-5v38zM375 -113h5v-37h19v-5h-24v42zM591 -117h-13v4h30v-4h-13v-38h-4v38zM409 -113h4v-37h20v-5h-24v42zM758 90h-15v-11h14c5 0 7 3 7 5c0 3 -2 6 -6 6zM728 -113h4v-42h-4v42zM441 -113h4v-42h-4v42zM244 -113h4v-42h-4v42z
M225 -152c0 2 2 4 4 4s3 -2 3 -4s-1 -3 -3 -3s-4 1 -4 3zM830 -152c0 2 2 4 4 4c1 0 3 -2 3 -4s-2 -3 -3 -3c-2 0 -4 1 -4 3z" />
    <glyph glyph-name="dieresistonos" unicode="&#x385;" horiz-adv-x="570" 
d="M129 698c25 0 45 -20 45 -45s-20 -45 -45 -45s-46 20 -46 45s21 45 46 45zM439 698c24 0 45 -20 45 -45s-21 -45 -45 -45c-26 0 -46 20 -46 45s20 45 46 45zM245 589l61 193l67 -14l-78 -179h-50z" />
    <glyph glyph-name="tonos" unicode="&#x384;" horiz-adv-x="413" 
d="M360 706l-181 -158h-61l149 166z" />
    <glyph glyph-name="Alpha" unicode="&#x391;" 
d="M629 0l-79 177h-363l-78 -177h-90l326 705h47l327 -705h-90zM368 588l-150 -341h301z" />
    <glyph glyph-name="Beta" unicode="&#x392;" horiz-adv-x="701" 
d="M519 562c0 -41 -16 -87 -52 -114c119 -13 190 -115 190 -225c0 -117 -74 -223 -213 -223h-359v705h278c87 0 156 -62 156 -143zM168 632v-176h192c60 0 82 50 82 87c0 51 -44 89 -106 89h-168zM169 73h235c111 0 164 72 164 158c0 80 -54 160 -163 160h-236v-318z" />
    <glyph glyph-name="Gamma" unicode="&#x393;" horiz-adv-x="599" 
d="M562 705v-73h-391v-632h-86v705h477z" />
    <glyph glyph-name="Epsilon" unicode="&#x395;" horiz-adv-x="644" 
d="M168 73h427v-73h-510v705h489v-73h-406v-254h344v-72h-344v-233z" />
    <glyph glyph-name="Zeta" unicode="&#x396;" horiz-adv-x="664" 
d="M614 705v-38l-443 -594h448v-73h-572v37l443 595h-419v73h543z" />
    <glyph glyph-name="Eta" unicode="&#x397;" 
d="M568 705h84v-705h-84v271h-400v-271h-83v705h83v-361h400v361z" />
    <glyph glyph-name="Theta" unicode="&#x398;" horiz-adv-x="850" 
d="M424 710c206 0 373 -161 373 -358s-167 -358 -373 -358c-205 0 -372 161 -372 358s167 358 372 358zM424 73c158 0 285 125 285 279s-127 279 -285 279c-157 0 -285 -125 -285 -279s128 -279 285 -279zM217 318v70h415v-70h-415z" />
    <glyph glyph-name="Iota" unicode="&#x399;" horiz-adv-x="259" 
d="M173 705v-705h-87v705h87z" />
    <glyph glyph-name="Kappa" unicode="&#x39a;" horiz-adv-x="698" 
d="M345 361l321 -361h-114l-263 298l-121 -131v-167h-83v705h83v-419l384 419h105z" />
    <glyph glyph-name="Lambda" unicode="&#x39b;" horiz-adv-x="732" 
d="M389 705l321 -705h-90l-254 581l-254 -581h-90l321 705h46z" />
    <glyph glyph-name="Mu" unicode="&#x39c;" horiz-adv-x="872" 
d="M742 705h45v-705h-86v510l-265 -416l-265 416v-510h-86v705h45l306 -468z" />
    <glyph glyph-name="Nu" unicode="&#x39d;" horiz-adv-x="773" 
d="M603 705h85v-705h-45l-472 544v-544h-86v705h45l473 -544v544z" />
    <glyph glyph-name="Xi" unicode="&#x39e;" horiz-adv-x="685" 
d="M60 72h576v-72h-576v72zM628 705v-72h-560v72h560zM580 319h-464v70h464v-70z" />
    <glyph glyph-name="Omicron" unicode="&#x39f;" horiz-adv-x="850" 
d="M424 710c207 0 373 -161 373 -358s-166 -358 -373 -358c-205 0 -372 161 -372 358s167 358 372 358zM424 73c158 0 285 125 285 279s-127 279 -285 279c-157 0 -285 -125 -285 -279s128 -279 285 -279z" />
    <glyph glyph-name="Pi" unicode="&#x3a0;" horiz-adv-x="746" 
d="M85 705h576v-705h-83v633h-409v-633h-84v705z" />
    <glyph glyph-name="Rho" unicode="&#x3a1;" horiz-adv-x="654" 
d="M85 705h279c192 0 259 -114 259 -238c0 -179 -118 -251 -286 -251h-166v-216h-86v705zM171 287h159c127 0 203 58 203 175c0 88 -46 170 -181 170h-181v-345z" />
    <glyph glyph-name="Sigma" unicode="&#x3a3;" horiz-adv-x="657" 
d="M172 73h439v-73h-566v38l241 314l-236 315v38h558v-73h-434l209 -280z" />
    <glyph glyph-name="Tau" unicode="&#x3a4;" horiz-adv-x="660" 
d="M617 705v-73h-242v-632h-87v632h-241v73h570z" />
    <glyph glyph-name="Upsilon" unicode="&#x3a5;" horiz-adv-x="671" 
d="M556 705h99l-276 -463v-242h-86v242l-276 463h98l221 -374z" />
    <glyph glyph-name="Phi" unicode="&#x3a6;" horiz-adv-x="900" 
d="M849 363v-9c-1 -172 -157 -299 -323 -299h-34v-55h-84v55h-33c-162 2 -324 121 -324 299v9c1 164 150 298 323 298h34v44h84v-44h34c171 0 323 -131 323 -298zM492 586v-456h34c127 0 240 94 240 228c0 127 -106 228 -240 228h-34zM135 358c0 -134 111 -228 239 -228h34
v456h-34c-134 0 -239 -101 -239 -228z" />
    <glyph glyph-name="Chi" unicode="&#x3a7;" horiz-adv-x="735" 
d="M370 417l234 288h98l-277 -351l280 -354h-99l-236 291l-236 -291h-100l280 354l-276 351h98z" />
    <glyph glyph-name="Psi" unicode="&#x3a8;" horiz-adv-x="865" 
d="M717 705h83v-258c0 -163 -140 -292 -297 -292h-28v-155h-84v155h-29c-156 0 -297 129 -297 292v258h84v-258c0 -121 94 -217 213 -217h29v475h84v-475h28c120 0 214 96 214 217v258z" />
    <glyph glyph-name="alpha" unicode="&#x3b1;" horiz-adv-x="671" 
d="M513 541h82v-541h-82v54c-50 -37 -114 -60 -188 -60c-153 0 -278 119 -278 279c0 161 125 278 278 278c71 0 139 -23 188 -60v50zM513 131v281c-43 41 -105 65 -175 65c-118 0 -209 -90 -209 -204c0 -117 91 -205 209 -205c71 0 133 24 175 63z" />
    <glyph glyph-name="beta" unicode="&#x3b2;" horiz-adv-x="646" 
d="M453 420c99 -29 149 -112 149 -192c0 -153 -111 -234 -248 -234c-77 0 -145 23 -195 63v-228h-83v673c0 161 103 257 228 257c133 0 230 -69 230 -198c0 -68 -34 -115 -81 -141zM304 689c-89 0 -145 -70 -145 -174v-70h184c62 0 112 45 112 119c0 83 -64 125 -151 125z
M342 66c98 0 178 54 178 162c0 73 -56 152 -170 152h-191v-242c42 -43 106 -72 183 -72z" />
    <glyph glyph-name="gamma" unicode="&#x3b3;" horiz-adv-x="610" 
d="M501 541h86l-240 -541v-171h-84v172l-241 540h86l197 -429z" />
    <glyph glyph-name="delta" unicode="&#x3b4;" horiz-adv-x="675" 
d="M556 686h-303c25 -21 226 -182 250 -203c85 -76 128 -154 128 -228c0 -157 -154 -261 -294 -261c-163 0 -295 119 -295 262c0 128 120 242 265 242c54 0 84 -11 103 -21c-6 6 -306 239 -306 239v38h452v-68zM337 65c117 0 212 87 212 191c0 92 -95 174 -212 174
c-118 0 -213 -68 -213 -174c0 -104 95 -191 213 -191z" />
    <glyph glyph-name="epsilon" unicode="&#x3b5;" horiz-adv-x="584" 
d="M508 122l34 -57c-83 -43 -148 -71 -250 -71c-144 0 -247 40 -247 157c0 56 37 106 105 127c-54 24 -85 75 -85 117c0 122 99 156 237 156c86 0 161 -30 229 -64l-32 -54c-62 29 -124 52 -187 52c-98 0 -166 -24 -166 -98c0 -30 31 -83 107 -83h137v-60h-159
c-71 0 -104 -48 -104 -85c0 -68 65 -98 167 -98c87 0 139 23 214 61z" />
    <glyph glyph-name="pi" unicode="&#x3c0;" horiz-adv-x="659" 
d="M76 541h507v-541h-83v470h-341v-470h-83v541z" />
    <glyph glyph-name="mu" unicode="&#xb5;" horiz-adv-x="655" 
d="M496 541h82v-541h-82v54c-45 -38 -109 -60 -181 -60c-67 0 -125 30 -156 85v-250h-83v712h83v-303c0 -112 67 -170 162 -170c73 0 130 22 175 61v412z" />
    <glyph glyph-name="Omega" unicode="&#x2126;" horiz-adv-x="836" 
d="M784 366c0 -150 -96 -252 -183 -294h172v-72h-291v78c89 23 215 123 215 288c0 180 -125 271 -279 271c-155 0 -280 -91 -280 -271c0 -165 127 -265 215 -288v-78h-290v72h171c-87 42 -182 144 -182 294c0 236 163 345 366 345c202 0 366 -109 366 -345z" />
    <glyph glyph-name="Delta" unicode="&#x2206;" horiz-adv-x="735" 
d="M391 705l323 -705h-693l323 705h47zM367 585l-226 -513h452z" />
    <glyph glyph-name="uni0394" unicode="&#x394;" horiz-adv-x="735" 
d="M391 705l323 -705h-693l323 705h47zM367 585l-226 -513h452z" />
    <glyph glyph-name="uni03A9" unicode="&#x3a9;" horiz-adv-x="836" 
d="M784 366c0 -150 -96 -252 -183 -294h172v-72h-291v78c89 23 215 123 215 288c0 180 -125 271 -279 271c-155 0 -280 -91 -280 -271c0 -165 127 -265 215 -288v-78h-290v72h171c-87 42 -182 144 -182 294c0 236 163 345 366 345c202 0 366 -109 366 -345z" />
    <glyph glyph-name="uni037E" unicode="&#x37e;" horiz-adv-x="220" 
d="M108 436c-29 0 -52 22 -52 51s23 52 52 52c28 0 52 -23 52 -52s-24 -51 -52 -51zM107 98c33 0 53 -23 53 -64c0 -92 -45 -159 -130 -161l-12 36c41 4 81 39 83 86c-25 3 -45 25 -45 51c0 29 24 52 51 52z" />
    <glyph glyph-name="anoteleia" unicode="&#x387;" horiz-adv-x="203" 
d="M144 481c0 -29 -23 -52 -52 -52s-52 23 -52 52s23 52 52 52s52 -23 52 -52z" />
    <glyph glyph-name="onehalf" unicode="&#xbd;" horiz-adv-x="912" 
d="M624 48h216v-48h-315v24c71 114 261 124 261 234c0 61 -50 108 -109 108c-60 0 -103 -53 -103 -108v-6h-49v9c0 90 70 155 153 155c85 0 159 -66 159 -155c0 -133 -140 -140 -213 -213zM622 701h64l-483 -701h-64zM200 705h24v-406h-55v352l-91 -20l-11 44z" />
    <glyph glyph-name="brokenbar" unicode="&#xa6;" horiz-adv-x="279" 
d="M106 415v383h66v-383h-66zM106 -127v383h66v-383h-66z" />
    <glyph glyph-name="Q" unicode="Q" horiz-adv-x="850" 
d="M764 41l-41 -49l-82 69c-61 -42 -136 -67 -217 -67c-205 0 -372 161 -372 358s167 358 372 358c206 0 373 -161 373 -358c0 -97 -42 -185 -108 -248zM424 73c56 0 108 16 151 43l-53 45l41 50l59 -51c53 47 87 116 87 192c0 154 -127 279 -285 279
c-157 0 -285 -125 -285 -279s128 -279 285 -279z" />
    <glyph glyph-name="notequal" unicode="&#x2260;" horiz-adv-x="639" 
d="M189 40h-64l65 127h-111v70h147l113 219h-260v70h296c65 125 65 126 65 126h64l-66 -126h120v-70h-156l-112 -219h268v-70h-304z" />
    <glyph glyph-name="infinity" unicode="&#x221e;" horiz-adv-x="862" 
d="M796 366c0 -117 -82 -179 -181 -179c-78 0 -131 44 -188 130c-55 -83 -110 -130 -187 -130c-103 0 -181 66 -181 179c0 116 81 178 181 178c77 0 132 -47 187 -130c57 87 110 130 188 130c102 0 181 -66 181 -178zM608 251c67 0 119 36 119 115c0 78 -52 115 -119 115
c-63 0 -102 -41 -148 -115c46 -75 85 -115 148 -115zM247 251c62 0 103 44 147 115c-44 70 -85 115 -147 115c-68 0 -120 -37 -120 -115c0 -79 52 -115 120 -115z" />
    <glyph glyph-name="plusminus" unicode="&#xb1;" horiz-adv-x="640" 
d="M571 466v-69h-216v-215h-68v215h-216v69h216v215h68v-215h216zM571 0h-500v69h500v-69z" />
    <glyph glyph-name="lessequal" unicode="&#x2264;" horiz-adv-x="628" 
d="M556 69v-69h-485v69h485zM556 682v-78l-373 -180l373 -179v-78l-485 237v40z" />
    <glyph glyph-name="greaterequal" unicode="&#x2265;" horiz-adv-x="627" 
d="M556 69v-69h-485v69h485zM71 167v78l373 179l-373 180v78l485 -238v-40z" />
    <glyph glyph-name="dotaccent" unicode="&#x2d9;" horiz-adv-x="379" 
d="M176 856c25 0 45 -20 45 -45s-20 -45 -45 -45s-45 20 -45 45s20 45 45 45z" />
    <glyph glyph-name="breve" unicode="&#x2d8;" horiz-adv-x="500" 
d="M251 770c-90 0 -151 43 -158 136l55 4c8 -57 43 -84 103 -84c58 0 95 27 102 84l56 -4c-8 -93 -69 -136 -158 -136z" />
    <glyph glyph-name="uni2117" unicode="&#x2117;" horiz-adv-x="865" 
 />
    <glyph glyph-name="zeta" unicode="&#x3b6;" horiz-adv-x="524" 
d="M518 754v-48c-148 -119 -391 -332 -391 -478c0 -137 372 -67 372 -239c0 -113 -170 -167 -184 -171l-28 48c54 24 127 65 127 115c0 103 -372 39 -372 242c0 147 194 338 356 463h-342v68h462z" />
    <glyph glyph-name="eta" unicode="&#x3b7;" horiz-adv-x="637" 
d="M340 551c144 0 232 -78 232 -244v-307h-83v307c0 112 -67 170 -162 170c-71 0 -125 -23 -168 -61v-416h-83v541h83v-52c45 40 109 62 181 62z" />
    <glyph glyph-name="theta" unicode="&#x3b8;" horiz-adv-x="654" 
d="M328 759c155 0 280 -148 280 -387s-125 -378 -280 -378s-281 139 -281 378s126 387 281 387zM328 63c114 0 198 115 201 275c-399 0 -401 0 -402 -1c2 -166 91 -274 201 -274zM328 690c-115 0 -198 -124 -201 -284c399 1 401 1 402 1c-3 166 -92 283 -201 283z" />
    <glyph glyph-name="iota" unicode="&#x3b9;" horiz-adv-x="240" 
d="M78 0v541h83v-541h-83z" />
    <glyph glyph-name="kappa" unicode="&#x3ba;" horiz-adv-x="609" 
d="M381 333l210 -333h-94l-172 270l-166 -157v-113h-83v541h83v-319l329 319h102z" />
    <glyph glyph-name="lambda" unicode="&#x3bb;" horiz-adv-x="610" 
d="M368 591l224 -591h-89l-170 472l-26 -22l-187 -450h-90l236 534l34 28c-31 86 -115 131 -195 131c-10 0 -20 -1 -30 -2v66c9 1 20 2 32 2c112 0 218 -55 261 -168z" />
    <glyph glyph-name="uni03BC" unicode="&#x3bc;" horiz-adv-x="655" 
d="M496 541h82v-541h-82v54c-45 -38 -109 -60 -181 -60c-67 0 -125 30 -156 85v-250h-83v712h83v-303c0 -112 67 -170 162 -170c73 0 130 22 175 61v412z" />
    <glyph glyph-name="nu" unicode="&#x3bd;" horiz-adv-x="612" 
d="M501 541h89l-263 -541h-41l-264 541h89l196 -406z" />
    <glyph glyph-name="xi" unicode="&#x3be;" horiz-adv-x="521" 
d="M495 754v-56c-210 -6 -318 -78 -318 -157c0 -95 136 -140 271 -140v-59c-190 -2 -317 -54 -317 -128c0 -159 362 -46 362 -231c0 -104 -153 -159 -166 -162l-38 46c50 21 117 62 117 107c0 104 -363 24 -363 241c0 83 81 140 201 166c-87 26 -151 79 -151 158
c0 55 32 113 125 147h-178v68h455z" />
    <glyph glyph-name="omicron" unicode="&#x3bf;" horiz-adv-x="678" 
d="M339 551c162 0 294 -125 294 -279c0 -153 -132 -278 -294 -278c-163 0 -295 125 -295 278c0 154 132 279 295 279zM339 68c117 0 212 92 212 204c0 113 -95 205 -212 205c-118 0 -213 -92 -213 -205c0 -112 95 -204 213 -204z" />
    <glyph glyph-name="rho" unicode="&#x3c1;" horiz-adv-x="656" 
d="M325 551c155 0 286 -117 286 -279c0 -160 -125 -278 -278 -278c-74 0 -138 21 -188 57v-222h-83v477c0 137 118 245 263 245zM320 68c117 0 209 87 209 204c0 116 -89 205 -207 205c-85 0 -177 -64 -177 -164v-182c42 -39 103 -63 175 -63z" />
    <glyph glyph-name="uni03C2" unicode="&#x3c2;" horiz-adv-x="566" 
d="M371 53c57 -24 116 -47 116 -108c0 -69 -79 -119 -142 -137c-8 11 -22 34 -30 45c46 26 89 53 89 85c0 33 -46 46 -91 63c-133 51 -269 116 -269 277c0 153 136 273 288 273c84 0 161 -38 209 -104l-55 -49c-35 49 -92 79 -154 79c-109 0 -206 -88 -206 -199
c0 -139 133 -175 245 -225z" />
    <glyph glyph-name="sigma" unicode="&#x3c3;" horiz-adv-x="681" 
d="M648 541v-69h-144c70 -34 127 -104 127 -206c0 -147 -130 -272 -292 -272c-163 0 -295 125 -295 278c0 151 132 269 295 269h309zM339 68c117 0 212 92 212 204c0 110 -95 198 -212 198c-118 0 -213 -88 -213 -198c0 -112 95 -204 213 -204z" />
    <glyph glyph-name="tau" unicode="&#x3c4;" horiz-adv-x="524" 
d="M497 541v-69h-192v-472h-83v472h-196v69h471z" />
    <glyph glyph-name="upsilon" unicode="&#x3c5;" horiz-adv-x="630" 
d="M565 541v-322c0 -142 -119 -225 -251 -225c-119 0 -249 77 -249 225v322h83v-308c0 -107 74 -167 166 -167c101 0 168 65 168 167v308h83z" />
    <glyph glyph-name="phi" unicode="&#x3c6;" horiz-adv-x="826" 
d="M782 267c0 -164 -158 -273 -330 -273v-165h-78v165c-172 0 -330 109 -330 273c0 119 80 219 197 266l27 -62c-89 -34 -142 -114 -142 -202c0 -119 102 -207 242 -207h6v486c20 3 41 5 61 5c180 0 347 -79 347 -286zM452 484v-422h6c140 0 242 88 242 207
c0 146 -108 215 -244 215h-4z" />
    <glyph glyph-name="chi" unicode="&#x3c7;" horiz-adv-x="583" 
d="M293 206l-174 -206h-92l218 273l-217 268h96l169 -206l169 206h96l-217 -268l219 -273h-94z" />
    <glyph glyph-name="psi" unicode="&#x3c8;" horiz-adv-x="811" 
d="M663 541h83v-322c0 -144 -102 -225 -300 -225v-165h-81v165c-199 0 -300 82 -300 225v322h83v-308c0 -112 78 -166 209 -167h8v546h81v-546h8c132 0 209 52 209 167v308z" />
    <glyph glyph-name="omega" unicode="&#x3c9;" horiz-adv-x="886" 
d="M591 475l3 74c138 -8 247 -110 247 -277c0 -170 -87 -278 -235 -278c-81 0 -139 52 -163 115c-25 -63 -84 -115 -163 -115c-149 0 -236 108 -236 278c0 167 109 269 247 277l2 -74c-95 -13 -167 -88 -167 -203c0 -126 56 -204 158 -204c73 0 119 75 119 145v122h79v-122
c0 -70 45 -145 119 -145c101 0 158 78 158 204c0 115 -72 190 -168 203z" />
    <glyph glyph-name="hungarumlaut" unicode="&#x2dd;" horiz-adv-x="500" 
d="M169 918l75 -25l-106 -135h-63zM325 918l79 -26l-110 -134h-62z" />
    <glyph glyph-name="ring" unicode="&#x2da;" horiz-adv-x="500" 
d="M152 770c0 52 45 96 97 96s97 -44 97 -96s-45 -96 -97 -96s-97 44 -97 96zM249 714c31 0 57 25 57 57c0 30 -26 56 -57 56s-57 -26 -57 -57s25 -56 57 -56z" />
    <glyph glyph-name="caron" unicode="&#x2c7;" horiz-adv-x="500" 
d="M221 755l-143 143h66l104 -97l104 97h67l-144 -143h-54z" />
    <glyph glyph-name="ogonek" unicode="&#x2db;" horiz-adv-x="500" 
d="M318 -121l3 -45c-21 -4 -38 -6 -55 -6c-60 0 -92 27 -92 75c0 46 54 95 60 101l56 -4c-4 -5 -52 -50 -52 -84c0 -26 19 -41 49 -41c9 0 18 2 31 4z" />
    <glyph glyph-name="logicalnot" unicode="&#xac;" horiz-adv-x="594" 
d="M540 472v-238h-72v167h-428v71h500z" />
    <glyph glyph-name="ordfeminine" unicode="&#xaa;" horiz-adv-x="489" 
d="M364 693h62v-373h-62v28c-33 -23 -74 -36 -122 -36c-113 0 -192 91 -192 194c0 104 79 194 192 194c45 0 89 -14 122 -35v28zM364 406v199c-26 24 -68 39 -113 39c-81 0 -141 -63 -141 -138c0 -74 60 -138 141 -138c46 0 85 15 113 38z" />
    <glyph glyph-name="ordmasculine" unicode="&#xba;" horiz-adv-x="507" 
d="M249 702c113 0 206 -87 206 -195c0 -107 -93 -194 -206 -194c-114 0 -206 87 -206 194c0 108 92 195 206 195zM249 369c79 0 145 62 145 138c0 77 -66 139 -145 139c-80 0 -145 -62 -145 -139c0 -76 65 -138 145 -138z" />
    <glyph glyph-name="onequarter" unicode="&#xbc;" horiz-adv-x="864" 
d="M200 705h24v-406h-55v352l-91 -20l-11 44zM729 143h76v-46h-76v-97h-53v97h-215l-14 31l241 279h41v-264zM676 143v181l-156 -181h156zM621 701h65l-483 -701h-65z" />
    <glyph glyph-name="threequarters" unicode="&#xbe;" horiz-adv-x="890" 
d="M767 143h77v-46h-77v-97h-53v97h-215l-13 31l240 279h41v-264zM55 704h289v-24l-116 -143c71 -9 124 -48 124 -113c0 -82 -65 -131 -163 -131c-64 0 -102 6 -155 30l20 43c47 -20 84 -26 136 -26c62 0 109 31 109 84c0 44 -41 76 -113 76h-21l-11 22l108 135h-207v47z
M660 701h64l-483 -701h-64zM714 143v181l-156 -181h156z" />
    <glyph glyph-name="minus" unicode="&#x2212;" horiz-adv-x="528" 
d="M474 367v-70h-422v70h422z" />
    <glyph glyph-name="multiply" unicode="&#xd7;" horiz-adv-x="581" 
d="M348 316l190 -190l-48 -50l-191 191l-190 -190l-50 49l191 190l-191 190l49 50l191 -192l191 192l49 -49z" />
    <glyph glyph-name="divide" unicode="&#xf7;" horiz-adv-x="526" 
d="M482 367v-69h-436v69h436zM259 516c-27 0 -49 22 -49 48c0 27 22 48 49 48s48 -21 48 -48c0 -26 -21 -48 -48 -48zM259 35c-27 0 -49 21 -49 48s22 48 49 48s48 -21 48 -48s-21 -48 -48 -48z" />
    <glyph glyph-name="approxequal" unicode="&#x2248;" horiz-adv-x="626" 
d="M442 210c51 0 87 27 116 53l23 -64c-31 -29 -71 -60 -135 -60c-79 0 -145 55 -230 55c-60 0 -110 -27 -133 -43l-23 60c20 15 80 54 152 54c94 0 148 -55 230 -55zM442 499c51 0 87 26 116 52l23 -64c-31 -28 -71 -59 -135 -59c-79 0 -145 55 -230 55
c-60 0 -110 -28 -133 -44l-23 61c20 15 80 53 152 53c94 0 148 -54 230 -54z" />
    <glyph glyph-name="partialdiff" unicode="&#x2202;" horiz-adv-x="662" 
d="M331 388c-106 0 -194 -58 -194 -157c0 -93 71 -166 201 -166c100 0 186 94 186 169c0 95 -93 154 -193 154zM310 640c-76 0 -147 -19 -181 -31l-36 65c55 24 132 37 230 37c161 0 291 -131 291 -412c0 -179 -124 -305 -276 -305c-158 0 -281 90 -281 236
c0 153 131 225 272 225c92 0 174 -43 206 -97c0 181 -93 282 -225 282z" />
    <glyph glyph-name="summation" unicode="&#x2211;" horiz-adv-x="668" 
d="M65 705h557v-73h-434c77 -121 154 -239 232 -359l-232 -361h434v-73h-557v38l257 396l-257 394v38z" />
    <glyph glyph-name="product" unicode="&#x220f;" horiz-adv-x="740" 
d="M85 -161v866h576v-866h-83v794h-410v-794h-83z" />
    <glyph glyph-name="integral" unicode="&#x222b;" horiz-adv-x="379" 
d="M376 744l-7 -62s-17 1 -24 1c-73 0 -77 -24 -92 -118l-90 -565c-27 -169 -56 -183 -149 -183c-14 0 -27 1 -41 2c0 0 8 65 8 66h9c73 0 77 24 92 118l91 564c25 156 52 183 133 183c33 0 70 -6 70 -6z" />
    <glyph glyph-name="radical" unicode="&#x221a;" horiz-adv-x="810" 
d="M458 128l369 787h81l-432 -915h-45l-259 557h-136v69h197z" />
    <glyph glyph-name="lozenge" unicode="&#x25ca;" horiz-adv-x="480" 
d="M220 754h33l187 -377l-187 -377h-33l-186 377zM111 377l125 -255l126 255l-126 255z" />
    <glyph glyph-name="Agrave" unicode="&#xc0;" 
d="M629 0l-79 177h-363l-78 -177h-90l326 705h47l327 -705h-90zM368 588l-150 -341h301zM340 755l-174 157l94 7l139 -164h-59z" />
    <glyph glyph-name="Adieresis" unicode="&#xc4;" 
d="M629 0l-79 177h-363l-78 -177h-90l326 705h47l327 -705h-90zM368 588l-150 -341h301zM455 856c24 0 45 -20 45 -45s-21 -45 -45 -45c-26 0 -46 20 -46 45s20 45 46 45zM282 856c25 0 45 -20 45 -45s-20 -45 -45 -45s-45 20 -45 45s20 45 45 45z" />
    <glyph glyph-name="Egrave" unicode="&#xc8;" horiz-adv-x="644" 
d="M168 73h427v-73h-510v705h489v-73h-406v-254h344v-72h-344v-233zM307 755l-174 157l94 7l139 -164h-59z" />
    <glyph glyph-name="Edieresis" unicode="&#xcb;" horiz-adv-x="644" 
d="M168 73h427v-73h-510v705h489v-73h-406v-254h344v-72h-344v-233zM421 856c24 0 45 -20 45 -45s-21 -45 -45 -45c-26 0 -46 20 -46 45s20 45 46 45zM248 856c25 0 45 -20 45 -45s-20 -45 -45 -45s-45 20 -45 45s20 45 45 45z" />
    <glyph glyph-name="Aring" unicode="&#xc5;" 
d="M271 770c0 52 45 96 97 96s97 -44 97 -96c0 -40 -27 -75 -62 -89l316 -681h-90l-79 177h-363l-78 -177h-90l314 680c-36 14 -62 50 -62 90zM368 588l-150 -341h301zM368 714c31 0 57 25 57 57c0 30 -26 56 -57 56s-57 -26 -57 -57s25 -56 57 -56z" />
    <glyph glyph-name="Ccedilla" unicode="&#xc7;" horiz-adv-x="756" 
d="M344 -76l50 71c-191 14 -342 169 -342 357c0 197 166 359 371 359c116 0 220 -53 288 -135l-66 -55c-51 66 -131 110 -222 110c-156 0 -283 -120 -283 -279c0 -158 127 -278 283 -278c91 0 171 43 222 109l66 -55c-63 -76 -157 -126 -262 -133l-25 -51
c25 0 48 -21 48 -58c-3 -34 -31 -73 -105 -73c-34 0 -66 6 -66 6l1 34c12 -3 32 -5 46 -5c44 0 66 20 66 43c0 25 -33 33 -70 33z" />
    <glyph glyph-name="Eacute" unicode="&#xc9;" horiz-adv-x="644" 
d="M168 73h427v-73h-510v705h489v-73h-406v-254h344v-72h-344v-233zM539 912l-174 -157h-58l139 164z" />
    <glyph glyph-name="Ntilde" unicode="&#xd1;" horiz-adv-x="773" 
d="M603 705h85v-705h-45l-472 544v-544h-86v705h45l473 -544v544zM236 752l-44 5c7 82 49 128 111 128c61 0 116 -45 163 -45c30 0 57 25 67 71l44 -6c-8 -82 -53 -127 -105 -127c-59 0 -118 46 -162 46c-39 0 -63 -27 -74 -72z" />
    <glyph glyph-name="Odieresis" unicode="&#xd6;" horiz-adv-x="850" 
d="M424 710c207 0 373 -161 373 -358s-166 -358 -373 -358c-205 0 -372 161 -372 358s167 358 372 358zM424 73c158 0 285 125 285 279s-127 279 -285 279c-157 0 -285 -125 -285 -279s128 -279 285 -279zM509 856c24 0 45 -20 45 -45s-21 -45 -45 -45c-26 0 -46 20 -46 45
s20 45 46 45zM336 856c25 0 45 -20 45 -45s-20 -45 -45 -45s-45 20 -45 45s20 45 45 45z" />
    <glyph glyph-name="Udieresis" unicode="&#xdc;" horiz-adv-x="755" 
d="M674 705v-422c0 -160 -103 -289 -297 -289c-193 0 -295 128 -295 289v422h84v-404c0 -139 73 -229 211 -229c139 0 214 90 214 229v404h83zM466 856c24 0 45 -20 45 -45s-21 -45 -45 -45c-26 0 -46 20 -46 45s20 45 46 45zM293 856c25 0 45 -20 45 -45s-20 -45 -45 -45
s-45 20 -45 45s20 45 45 45z" />
    <glyph glyph-name="aacute" unicode="&#xe1;" horiz-adv-x="669" 
d="M510 541h83v-541h-83v54c-49 -37 -113 -60 -188 -60c-163 0 -275 130 -275 279c0 148 112 278 275 278c71 0 140 -23 188 -60v50zM510 131v281c-43 41 -104 65 -175 65c-120 0 -208 -93 -208 -204s89 -205 208 -205c72 0 133 24 175 63zM540 771l-174 -157h-58l139 164z
" />
    <glyph glyph-name="agrave" unicode="&#xe0;" horiz-adv-x="669" 
d="M510 541h83v-541h-83v54c-49 -37 -113 -60 -188 -60c-163 0 -275 130 -275 279c0 148 112 278 275 278c71 0 140 -23 188 -60v50zM510 131v281c-43 41 -104 65 -175 65c-120 0 -208 -93 -208 -204s89 -205 208 -205c72 0 133 24 175 63zM308 614l-174 157l94 7l139 -164
h-59z" />
    <glyph glyph-name="acircumflex" unicode="&#xe2;" horiz-adv-x="669" 
d="M510 541h83v-541h-83v54c-49 -37 -113 -60 -188 -60c-163 0 -275 130 -275 279c0 148 112 278 275 278c71 0 140 -23 188 -60v50zM510 131v281c-43 41 -104 65 -175 65c-120 0 -208 -93 -208 -204s89 -205 208 -205c72 0 133 24 175 63zM171 614l143 143h54l144 -143h-67
l-104 97l-104 -97h-66z" />
    <glyph glyph-name="adieresis" unicode="&#xe4;" horiz-adv-x="669" 
d="M510 541h83v-541h-83v54c-49 -37 -113 -60 -188 -60c-163 0 -275 130 -275 279c0 148 112 278 275 278c71 0 140 -23 188 -60v50zM510 131v281c-43 41 -104 65 -175 65c-120 0 -208 -93 -208 -204s89 -205 208 -205c72 0 133 24 175 63zM428 715c24 0 45 -20 45 -45
s-21 -45 -45 -45c-26 0 -46 20 -46 45s20 45 46 45zM255 715c25 0 45 -20 45 -45s-20 -45 -45 -45s-45 20 -45 45s20 45 45 45z" />
    <glyph glyph-name="atilde" unicode="&#xe3;" horiz-adv-x="669" 
d="M510 541h83v-541h-83v54c-49 -37 -113 -60 -188 -60c-163 0 -275 130 -275 279c0 148 112 278 275 278c71 0 140 -23 188 -60v50zM510 131v281c-43 41 -104 65 -175 65c-120 0 -208 -93 -208 -204s89 -205 208 -205c72 0 133 24 175 63zM194 611l-44 5
c7 82 49 128 111 128c61 0 116 -45 163 -45c30 0 57 25 67 71l44 -6c-8 -82 -53 -127 -105 -127c-59 0 -118 46 -162 46c-39 0 -63 -27 -74 -72z" />
    <glyph glyph-name="aring" unicode="&#xe5;" horiz-adv-x="669" 
d="M510 541h83v-541h-83v54c-49 -37 -113 -60 -188 -60c-163 0 -275 130 -275 279c0 148 112 278 275 278c71 0 140 -23 188 -60v50zM510 131v281c-43 41 -104 65 -175 65c-120 0 -208 -93 -208 -204s89 -205 208 -205c72 0 133 24 175 63zM243 721c0 52 45 96 97 96
s97 -44 97 -96s-45 -96 -97 -96s-97 44 -97 96zM340 665c31 0 57 25 57 57c0 30 -26 56 -57 56s-57 -26 -57 -57s25 -56 57 -56z" />
    <glyph glyph-name="ccedilla" unicode="&#xe7;" horiz-adv-x="583" 
d="M259 -76l51 72c-150 13 -266 132 -266 276c0 154 132 279 295 279c83 0 155 -38 203 -98l-55 -50c-35 45 -88 74 -148 74c-118 0 -213 -92 -213 -205c0 -112 95 -204 213 -204c59 0 113 30 148 76l54 -50c-44 -56 -107 -92 -177 -99l-25 -51c25 0 48 -21 48 -58
c-3 -34 -31 -73 -105 -73c-34 0 -66 6 -66 6l1 34c12 -3 32 -5 46 -5c44 0 66 20 66 43c0 25 -33 33 -70 33z" />
    <glyph glyph-name="egrave" unicode="&#xe8;" horiz-adv-x="627" 
d="M581 246h-453c14 -106 105 -179 206 -179c68 0 130 28 172 79l55 -44c-50 -66 -137 -108 -241 -108c-162 0 -275 125 -275 278c0 154 113 279 275 279s262 -117 262 -283c0 -9 -1 -22 -1 -22zM320 483c-103 0 -178 -75 -191 -172h372c-8 98 -68 172 -181 172zM289 614
l-174 157l94 7l139 -164h-59z" />
    <glyph glyph-name="ecircumflex" unicode="&#xea;" horiz-adv-x="627" 
d="M581 246h-453c14 -106 105 -179 206 -179c68 0 130 28 172 79l55 -44c-50 -66 -137 -108 -241 -108c-162 0 -275 125 -275 278c0 154 113 279 275 279s262 -117 262 -283c0 -9 -1 -22 -1 -22zM320 483c-103 0 -178 -75 -191 -172h372c-8 98 -68 172 -181 172zM146 614
l143 143h54l144 -143h-67l-104 97l-104 -97h-66z" />
    <glyph glyph-name="edieresis" unicode="&#xeb;" horiz-adv-x="627" 
d="M581 246h-453c14 -106 105 -179 206 -179c68 0 130 28 172 79l55 -44c-50 -66 -137 -108 -241 -108c-162 0 -275 125 -275 278c0 154 113 279 275 279s262 -117 262 -283c0 -9 -1 -22 -1 -22zM320 483c-103 0 -178 -75 -191 -172h372c-8 98 -68 172 -181 172zM403 715
c24 0 45 -20 45 -45s-21 -45 -45 -45c-26 0 -46 20 -46 45s20 45 46 45zM230 715c25 0 45 -20 45 -45s-20 -45 -45 -45s-45 20 -45 45s20 45 45 45z" />
    <glyph glyph-name="eacute" unicode="&#xe9;" horiz-adv-x="627" 
d="M581 246h-453c14 -106 105 -179 206 -179c68 0 130 28 172 79l55 -44c-50 -66 -137 -108 -241 -108c-162 0 -275 125 -275 278c0 154 113 279 275 279s262 -117 262 -283c0 -9 -1 -22 -1 -22zM320 483c-103 0 -178 -75 -191 -172h372c-8 98 -68 172 -181 172zM521 771
l-174 -157h-58l139 164z" />
    <glyph glyph-name="igrave" unicode="&#xec;" horiz-adv-x="240" 
d="M93 604l-174 157l94 7l139 -164h-59zM78 0v541h83v-541h-83z" />
    <glyph glyph-name="icircumflex" unicode="&#xee;" horiz-adv-x="240" 
d="M78 0v541h83v-541h-83zM-50 604l143 143h54l144 -143h-67l-104 97l-104 -97h-66z" />
    <glyph glyph-name="idieresis" unicode="&#xef;" horiz-adv-x="240" 
d="M207 705c24 0 45 -20 45 -45s-21 -45 -45 -45c-26 0 -46 20 -46 45s20 45 46 45zM34 705c25 0 45 -20 45 -45s-20 -45 -45 -45s-45 20 -45 45s20 45 45 45zM78 0v541h83v-541h-83z" />
    <glyph glyph-name="iacute" unicode="&#xed;" horiz-adv-x="240" 
d="M327 761l-174 -157h-58l139 164zM78 0v541h83v-541h-83z" />
    <glyph glyph-name="ntilde" unicode="&#xf1;" horiz-adv-x="638" 
d="M340 551c144 0 232 -78 232 -244v-307h-83v307c0 112 -66 170 -162 170c-71 0 -125 -23 -168 -61v-416h-83v541h83v-52c45 40 109 62 181 62zM172 601l-44 5c7 82 49 128 111 128c61 0 116 -45 163 -45c30 0 57 25 67 71l44 -6c-8 -82 -53 -127 -105 -127
c-59 0 -118 46 -162 46c-39 0 -63 -27 -74 -72z" />
    <glyph glyph-name="ograve" unicode="&#xf2;" horiz-adv-x="677" 
d="M338 551c162 0 294 -125 294 -279c0 -153 -132 -278 -294 -278c-163 0 -295 125 -295 278c0 154 132 279 295 279zM338 68c117 0 212 92 212 204c0 113 -95 205 -212 205c-118 0 -213 -92 -213 -205c0 -112 95 -204 213 -204zM306 604l-174 157l94 7l139 -164h-59z" />
    <glyph glyph-name="ocircumflex" unicode="&#xf4;" horiz-adv-x="677" 
d="M338 551c162 0 294 -125 294 -279c0 -153 -132 -278 -294 -278c-163 0 -295 125 -295 278c0 154 132 279 295 279zM338 68c117 0 212 92 212 204c0 113 -95 205 -212 205c-118 0 -213 -92 -213 -205c0 -112 95 -204 213 -204zM165 604l143 143h54l144 -143h-67l-104 97
l-104 -97h-66z" />
    <glyph glyph-name="otilde" unicode="&#xf5;" horiz-adv-x="677" 
d="M338 551c162 0 294 -125 294 -279c0 -153 -132 -278 -294 -278c-163 0 -295 125 -295 278c0 154 132 279 295 279zM338 68c117 0 212 92 212 204c0 113 -95 205 -212 205c-118 0 -213 -92 -213 -205c0 -112 95 -204 213 -204zM188 601l-44 5c7 82 49 128 111 128
c61 0 116 -45 163 -45c30 0 57 25 67 71l44 -6c-8 -82 -53 -127 -105 -127c-59 0 -118 46 -162 46c-39 0 -63 -27 -74 -72z" />
    <glyph glyph-name="odieresis" unicode="&#xf6;" horiz-adv-x="677" 
d="M338 551c162 0 294 -125 294 -279c0 -153 -132 -278 -294 -278c-163 0 -295 125 -295 278c0 154 132 279 295 279zM338 68c117 0 212 92 212 204c0 113 -95 205 -212 205c-118 0 -213 -92 -213 -205c0 -112 95 -204 213 -204zM422 705c24 0 45 -20 45 -45
s-21 -45 -45 -45c-26 0 -46 20 -46 45s20 45 46 45zM249 705c25 0 45 -20 45 -45s-20 -45 -45 -45s-45 20 -45 45s20 45 45 45z" />
    <glyph glyph-name="oacute" unicode="&#xf3;" horiz-adv-x="677" 
d="M338 551c162 0 294 -125 294 -279c0 -153 -132 -278 -294 -278c-163 0 -295 125 -295 278c0 154 132 279 295 279zM338 68c117 0 212 92 212 204c0 113 -95 205 -212 205c-118 0 -213 -92 -213 -205c0 -112 95 -204 213 -204zM538 761l-174 -157h-58l139 164z" />
    <glyph glyph-name="ugrave" unicode="&#xf9;" horiz-adv-x="645" 
d="M486 541h83v-541h-83v56c-47 -40 -114 -62 -187 -62c-144 0 -232 78 -232 244v303h82v-303c0 -112 67 -170 163 -170c72 0 129 22 174 61v412zM295 604l-174 157l94 7l139 -164h-59z" />
    <glyph glyph-name="ucircumflex" unicode="&#xfb;" horiz-adv-x="645" 
d="M486 541h83v-541h-83v56c-47 -40 -114 -62 -187 -62c-144 0 -232 78 -232 244v303h82v-303c0 -112 67 -170 163 -170c72 0 129 22 174 61v412zM147 604l143 143h54l144 -143h-67l-104 97l-104 -97h-66z" />
    <glyph glyph-name="udieresis" unicode="&#xfc;" horiz-adv-x="645" 
d="M486 541h83v-541h-83v56c-47 -40 -114 -62 -187 -62c-144 0 -232 78 -232 244v303h82v-303c0 -112 67 -170 163 -170c72 0 129 22 174 61v412zM403 705c24 0 45 -20 45 -45s-21 -45 -45 -45c-26 0 -46 20 -46 45s20 45 46 45zM230 705c25 0 45 -20 45 -45
s-20 -45 -45 -45s-45 20 -45 45s20 45 45 45z" />
    <glyph glyph-name="uacute" unicode="&#xfa;" horiz-adv-x="645" 
d="M486 541h83v-541h-83v56c-47 -40 -114 -62 -187 -62c-144 0 -232 78 -232 244v303h82v-303c0 -112 67 -170 163 -170c72 0 129 22 174 61v412zM527 761l-174 -157h-58l139 164z" />
    <glyph glyph-name="Atilde" unicode="&#xc3;" 
d="M629 0l-79 177h-363l-78 -177h-90l326 705h47l327 -705h-90zM368 588l-150 -341h301zM221 752l-44 5c7 82 49 128 111 128c61 0 116 -45 163 -45c30 0 57 25 67 71l44 -6c-8 -82 -53 -127 -105 -127c-59 0 -118 46 -162 46c-39 0 -63 -27 -74 -72z" />
    <glyph glyph-name="Otilde" unicode="&#xd5;" horiz-adv-x="850" 
d="M424 710c207 0 373 -161 373 -358s-166 -358 -373 -358c-205 0 -372 161 -372 358s167 358 372 358zM424 73c158 0 285 125 285 279s-127 279 -285 279c-157 0 -285 -125 -285 -279s128 -279 285 -279zM273 752l-44 5c7 82 49 128 111 128c61 0 116 -45 163 -45
c30 0 57 25 67 71l44 -6c-8 -82 -53 -127 -105 -127c-59 0 -118 46 -162 46c-39 0 -63 -27 -74 -72z" />
    <glyph glyph-name="Acircumflex" unicode="&#xc2;" 
d="M629 0l-79 177h-363l-78 -177h-90l326 705h47l327 -705h-90zM368 588l-150 -341h301zM198 755l143 143h54l144 -143h-67l-104 97l-104 -97h-66z" />
    <glyph glyph-name="Ecircumflex" unicode="&#xca;" horiz-adv-x="644" 
d="M168 73h427v-73h-510v705h489v-73h-406v-254h344v-72h-344v-233zM164 755l143 143h54l144 -143h-67l-104 97l-104 -97h-66z" />
    <glyph glyph-name="Aacute" unicode="&#xc1;" 
d="M629 0l-79 177h-363l-78 -177h-90l326 705h47l327 -705h-90zM368 588l-150 -341h301zM574 912l-174 -157h-58l139 164z" />
    <glyph glyph-name="Igrave" unicode="&#xcc;" horiz-adv-x="259" 
d="M173 705v-705h-87v705h87zM102 768l-174 157l94 7l139 -164h-59z" />
    <glyph glyph-name="Icircumflex" unicode="&#xce;" horiz-adv-x="259" 
d="M173 705v-705h-87v705h87zM-40 768l143 143h54l144 -143h-67l-104 97l-104 -97h-66z" />
    <glyph glyph-name="Idieresis" unicode="&#xcf;" horiz-adv-x="259" 
d="M173 705v-705h-87v705h87zM218 869c24 0 45 -20 45 -45s-21 -45 -45 -45c-26 0 -46 20 -46 45s20 45 46 45zM45 869c25 0 45 -20 45 -45s-20 -45 -45 -45s-45 20 -45 45s20 45 45 45z" />
    <glyph glyph-name="Iacute" unicode="&#xcd;" horiz-adv-x="259" 
d="M173 705v-705h-87v705h87zM337 925l-174 -157h-58l139 164z" />
    <glyph glyph-name="Ograve" unicode="&#xd2;" horiz-adv-x="850" 
d="M424 710c207 0 373 -161 373 -358s-166 -358 -373 -358c-205 0 -372 161 -372 358s167 358 372 358zM424 73c158 0 285 125 285 279s-127 279 -285 279c-157 0 -285 -125 -285 -279s128 -279 285 -279zM391 755l-174 157l94 7l139 -164h-59z" />
    <glyph glyph-name="Ocircumflex" unicode="&#xd4;" horiz-adv-x="850" 
d="M424 710c207 0 373 -161 373 -358s-166 -358 -373 -358c-205 0 -372 161 -372 358s167 358 372 358zM424 73c158 0 285 125 285 279s-127 279 -285 279c-157 0 -285 -125 -285 -279s128 -279 285 -279zM249 755l143 143h54l144 -143h-67l-104 97l-104 -97h-66z" />
    <glyph glyph-name="Oacute" unicode="&#xd3;" horiz-adv-x="850" 
d="M424 710c207 0 373 -161 373 -358s-166 -358 -373 -358c-205 0 -372 161 -372 358s167 358 372 358zM424 73c158 0 285 125 285 279s-127 279 -285 279c-157 0 -285 -125 -285 -279s128 -279 285 -279zM622 912l-174 -157h-58l139 164z" />
    <glyph glyph-name="Ugrave" unicode="&#xd9;" horiz-adv-x="755" 
d="M674 705v-422c0 -160 -103 -289 -297 -289c-193 0 -295 128 -295 289v422h84v-404c0 -139 73 -229 211 -229c139 0 214 90 214 229v404h83zM352 755l-174 157l94 7l139 -164h-59z" />
    <glyph glyph-name="Ucircumflex" unicode="&#xdb;" horiz-adv-x="755" 
d="M674 705v-422c0 -160 -103 -289 -297 -289c-193 0 -295 128 -295 289v422h84v-404c0 -139 73 -229 211 -229c139 0 214 90 214 229v404h83zM209 755l143 143h54l144 -143h-67l-104 97l-104 -97h-66z" />
    <glyph glyph-name="Uacute" unicode="&#xda;" horiz-adv-x="755" 
d="M674 705v-422c0 -160 -103 -289 -297 -289c-193 0 -295 128 -295 289v422h84v-404c0 -139 73 -229 211 -229c139 0 214 90 214 229v404h83zM584 912l-174 -157h-58l139 164z" />
    <glyph glyph-name="Yacute" unicode="&#xdd;" horiz-adv-x="671" 
d="M556 705h99l-276 -463v-242h-86v242l-276 463h98l221 -374zM543 912l-174 -157h-58l139 164z" />
    <glyph glyph-name="Ydieresis" unicode="&#x178;" horiz-adv-x="671" 
d="M556 705h99l-276 -463v-242h-86v242l-276 463h98l221 -374zM423 856c24 0 45 -20 45 -45s-21 -45 -45 -45c-26 0 -46 20 -46 45s20 45 46 45zM250 856c25 0 45 -20 45 -45s-20 -45 -45 -45s-45 20 -45 45s20 45 45 45z" />
    <glyph glyph-name="ydieresis" unicode="&#xff;" horiz-adv-x="613" 
d="M498 541h86l-227 -570c-46 -114 -168 -157 -277 -157c-14 0 -27 0 -39 1l9 63h13c99 0 184 33 218 122h-22l-232 541h88l191 -443h18zM399 705c24 0 45 -20 45 -45s-21 -45 -45 -45c-26 0 -46 20 -46 45s20 45 46 45zM226 705c25 0 45 -20 45 -45s-20 -45 -45 -45
s-45 20 -45 45s20 45 45 45z" />
    <glyph glyph-name="yacute" unicode="&#xfd;" horiz-adv-x="613" 
d="M498 541h86l-227 -570c-46 -114 -168 -157 -277 -157c-14 0 -27 0 -39 1l9 63h13c99 0 184 33 218 122h-22l-232 541h88l191 -443h18zM517 761l-174 -157h-58l139 164z" />
    <glyph glyph-name="Alphatonos" unicode="&#x386;" 
d="M629 0l-79 177h-363l-78 -177h-90l326 705h47l327 -705h-90zM368 588l-150 -341h301zM251 706l-181 -158h-61l149 166z" />
    <glyph glyph-name="Epsilontonos" unicode="&#x388;" horiz-adv-x="644" 
d="M27 706l-181 -158h-61l149 166zM168 73h427v-73h-510v705h489v-73h-406v-254h344v-72h-344v-233z" />
    <glyph glyph-name="Etatonos" unicode="&#x389;" 
d="M568 705h84v-705h-84v271h-400v-271h-83v705h83v-361h400v361zM27 706l-181 -158h-61l149 166z" />
    <glyph glyph-name="Iotatonos" unicode="&#x38a;" horiz-adv-x="259" 
d="M173 705v-705h-87v705h87zM27 706l-181 -158h-61l149 166z" />
    <glyph glyph-name="Omicrontonos" unicode="&#x38c;" horiz-adv-x="850" 
d="M119 706l-181 -158h-61l149 166zM424 710c207 0 373 -161 373 -358s-166 -358 -373 -358c-205 0 -372 161 -372 358s167 358 372 358zM424 73c158 0 285 125 285 279s-127 279 -285 279c-157 0 -285 -125 -285 -279s128 -279 285 -279z" />
    <glyph glyph-name="Upsilontonos" unicode="&#x38e;" horiz-adv-x="671" 
d="M-13 706l-181 -158h-61l149 166zM556 705h99l-276 -463v-242h-86v242l-276 463h98l221 -374z" />
    <glyph glyph-name="Omegatonos" unicode="&#x38f;" horiz-adv-x="836" 
d="M784 366c0 -150 -96 -252 -183 -294h172v-72h-291v78c89 23 215 123 215 288c0 180 -125 271 -279 271c-155 0 -280 -91 -280 -271c0 -165 127 -265 215 -288v-78h-290v72h171c-87 42 -182 144 -182 294c0 236 163 345 366 345c202 0 366 -109 366 -345zM115 706
l-181 -158h-61l149 166z" />
    <glyph glyph-name="iotadieresistonos" unicode="&#x390;" horiz-adv-x="240" 
d="M78 0v541h83v-541h-83zM-31 691c25 0 45 -20 45 -45s-20 -45 -45 -45s-46 20 -46 45s21 45 46 45zM279 691c24 0 45 -20 45 -45s-21 -45 -45 -45c-26 0 -46 20 -46 45s20 45 46 45zM85 582l61 193l67 -14l-78 -179h-50z" />
    <glyph glyph-name="iotatonos" unicode="&#x3af;" horiz-adv-x="240" 
d="M78 0v541h83v-541h-83zM327 758l-181 -158h-61l149 166z" />
    <glyph glyph-name="Iotadieresis" unicode="&#x3aa;" horiz-adv-x="259" 
d="M173 705v-705h-87v705h87zM217 869c24 0 45 -20 45 -45s-21 -45 -45 -45c-26 0 -46 20 -46 45s20 45 46 45zM44 869c25 0 45 -20 45 -45s-20 -45 -45 -45s-45 20 -45 45s20 45 45 45z" />
    <glyph glyph-name="Upsilondieresis" unicode="&#x3ab;" horiz-adv-x="671" 
d="M556 705h99l-276 -463v-242h-86v242l-276 463h98l221 -374zM423 869c24 0 45 -20 45 -45s-21 -45 -45 -45c-26 0 -46 20 -46 45s20 45 46 45zM250 869c25 0 45 -20 45 -45s-20 -45 -45 -45s-45 20 -45 45s20 45 45 45z" />
    <glyph glyph-name="alphatonos" unicode="&#x3ac;" horiz-adv-x="671" 
d="M513 541h82v-541h-82v54c-50 -37 -114 -60 -188 -60c-153 0 -278 119 -278 279c0 161 125 278 278 278c71 0 139 -23 188 -60v50zM513 131v281c-43 41 -105 65 -175 65c-118 0 -209 -90 -209 -204c0 -117 91 -205 209 -205c71 0 133 24 175 63zM535 758l-181 -158h-61
l149 166z" />
    <glyph glyph-name="epsilontonos" unicode="&#x3ad;" horiz-adv-x="584" 
d="M525 758l-181 -158h-61l149 166zM508 122l34 -57c-83 -43 -148 -71 -250 -71c-144 0 -247 40 -247 157c0 56 37 106 105 127c-54 24 -85 75 -85 117c0 122 99 156 237 156c86 0 161 -30 229 -64l-32 -54c-62 29 -124 52 -187 52c-98 0 -166 -24 -166 -98
c0 -30 31 -83 107 -83h137v-60h-159c-71 0 -104 -48 -104 -85c0 -68 65 -98 167 -98c87 0 139 23 214 61z" />
    <glyph glyph-name="etatonos" unicode="&#x3ae;" horiz-adv-x="637" 
d="M340 551c144 0 232 -78 232 -244v-307h-83v307c0 112 -67 170 -162 170c-71 0 -125 -23 -168 -61v-416h-83v541h83v-52c45 40 109 62 181 62zM535 758l-181 -158h-61l149 166z" />
    <glyph glyph-name="iotadieresis" unicode="&#x3ca;" horiz-adv-x="240" 
d="M78 0v541h83v-541h-83zM208 705c24 0 45 -20 45 -45s-21 -45 -45 -45c-26 0 -46 20 -46 45s20 45 46 45zM35 705c25 0 45 -20 45 -45s-20 -45 -45 -45s-45 20 -45 45s20 45 45 45z" />
    <glyph glyph-name="omicrontonos" unicode="&#x3cc;" horiz-adv-x="678" 
d="M541 758l-181 -158h-61l149 166zM339 551c162 0 294 -125 294 -279c0 -153 -132 -278 -294 -278c-163 0 -295 125 -295 278c0 154 132 279 295 279zM339 68c117 0 212 92 212 204c0 113 -95 205 -212 205c-118 0 -213 -92 -213 -205c0 -112 95 -204 213 -204z" />
    <glyph glyph-name="upsilontonos" unicode="&#x3cd;" horiz-adv-x="630" 
d="M519 758l-181 -158h-61l149 166zM565 541v-322c0 -142 -119 -225 -251 -225c-119 0 -249 77 -249 225v322h83v-308c0 -107 74 -167 166 -167c101 0 168 65 168 167v308h83z" />
    <glyph glyph-name="omegatonos" unicode="&#x3ce;" horiz-adv-x="886" 
d="M591 475l3 74c138 -8 247 -110 247 -277c0 -170 -87 -278 -235 -278c-81 0 -139 52 -163 115c-25 -63 -84 -115 -163 -115c-149 0 -236 108 -236 278c0 167 109 269 247 277l2 -74c-95 -13 -167 -88 -167 -203c0 -126 56 -204 158 -204c73 0 119 75 119 145v122h79v-122
c0 -70 45 -145 119 -145c101 0 158 78 158 204c0 115 -72 190 -168 203zM649 758l-181 -158h-61l149 166z" />
    <glyph glyph-name="upsilondieresis" unicode="&#x3cb;" horiz-adv-x="630" 
d="M565 541v-322c0 -142 -119 -225 -251 -225c-119 0 -249 77 -249 225v322h83v-308c0 -107 74 -167 166 -167c101 0 168 65 168 167v308h83zM398 705c24 0 45 -20 45 -45s-21 -45 -45 -45c-26 0 -46 20 -46 45s20 45 46 45zM225 705c25 0 45 -20 45 -45s-20 -45 -45 -45
s-45 20 -45 45s20 45 45 45z" />
    <glyph glyph-name="upsilondieresistonos" unicode="&#x3b0;" horiz-adv-x="630" 
d="M565 541v-322c0 -142 -119 -225 -251 -225c-119 0 -249 77 -249 225v322h83v-308c0 -107 74 -167 166 -167c101 0 168 65 168 167v308h83zM163 698c25 0 45 -20 45 -45s-20 -45 -45 -45s-46 20 -46 45s21 45 46 45zM473 698c24 0 45 -20 45 -45s-21 -45 -45 -45
c-26 0 -46 20 -46 45s20 45 46 45zM279 589l61 193l67 -14l-78 -179h-50z" />
    <glyph glyph-name="Amacron" unicode="&#x100;" 
d="M629 0l-79 177h-363l-78 -177h-90l326 705h47l327 -705h-90zM368 588l-150 -341h301zM210 782v55h316v-55h-316z" />
    <glyph glyph-name="Abreve" unicode="&#x102;" 
d="M629 0l-79 177h-363l-78 -177h-90l326 705h47l327 -705h-90zM368 588l-150 -341h301zM369 770c-90 0 -151 43 -158 136l55 4c8 -57 43 -84 103 -84c58 0 95 27 102 84l56 -4c-8 -93 -69 -136 -158 -136z" />
    <glyph glyph-name="Aogonek" unicode="&#x104;" 
d="M629 0l-79 177h-363l-78 -177h-90l326 705h47l327 -705h-1c-4 -5 -52 -50 -52 -84c0 -26 19 -41 49 -41c9 0 18 2 31 4l3 -45c-21 -4 -38 -6 -55 -6c-60 0 -92 27 -92 75c0 40 41 83 55 97h-28zM368 588l-150 -341h301z" />
    <glyph glyph-name="amacron" unicode="&#x101;" horiz-adv-x="669" 
d="M510 541h83v-541h-83v54c-49 -37 -113 -60 -188 -60c-163 0 -275 130 -275 279c0 148 112 278 275 278c71 0 140 -23 188 -60v50zM510 131v281c-43 41 -104 65 -175 65c-120 0 -208 -93 -208 -204s89 -205 208 -205c72 0 133 24 175 63zM176 641v55h316v-55h-316z" />
    <glyph glyph-name="abreve" unicode="&#x103;" horiz-adv-x="669" 
d="M510 541h83v-541h-83v54c-49 -37 -113 -60 -188 -60c-163 0 -275 130 -275 279c0 148 112 278 275 278c71 0 140 -23 188 -60v50zM510 131v281c-43 41 -104 65 -175 65c-120 0 -208 -93 -208 -204s89 -205 208 -205c72 0 133 24 175 63zM336 629c-90 0 -151 43 -158 136
l55 4c8 -57 43 -84 103 -84c58 0 95 27 102 84l56 -4c-8 -93 -69 -136 -158 -136z" />
    <glyph glyph-name="aogonek" unicode="&#x105;" horiz-adv-x="669" 
d="M621 -121l3 -45c-21 -4 -38 -6 -55 -6c-60 0 -92 27 -92 75c0 40 41 83 55 97h-22v54c-49 -37 -113 -60 -188 -60c-163 0 -275 130 -275 279c0 148 112 278 275 278c71 0 140 -23 188 -60v50h83v-541c-4 -5 -52 -50 -52 -84c0 -26 19 -41 49 -41c9 0 18 2 31 4zM510 131
v281c-43 41 -104 65 -175 65c-120 0 -208 -93 -208 -204s89 -205 208 -205c72 0 133 24 175 63z" />
    <glyph glyph-name="Ccircumflex" unicode="&#x108;" horiz-adv-x="756" 
d="M423 74c91 0 171 43 222 109l66 -55c-68 -82 -172 -134 -288 -134c-205 0 -371 161 -371 358s166 359 371 359c116 0 220 -53 288 -135l-66 -55c-51 66 -131 110 -222 110c-156 0 -283 -120 -283 -279c0 -158 127 -278 283 -278zM243 755l143 143h54l144 -143h-67
l-104 97l-104 -97h-66z" />
    <glyph glyph-name="Cacute" unicode="&#x106;" horiz-adv-x="756" 
d="M423 74c91 0 171 43 222 109l66 -55c-68 -82 -172 -134 -288 -134c-205 0 -371 161 -371 358s166 359 371 359c116 0 220 -53 288 -135l-66 -55c-51 66 -131 110 -222 110c-156 0 -283 -120 -283 -279c0 -158 127 -278 283 -278zM618 912l-174 -157h-58l139 164z" />
    <glyph glyph-name="Cdotaccent" unicode="&#x10a;" horiz-adv-x="756" 
d="M423 74c91 0 171 43 222 109l66 -55c-68 -82 -172 -134 -288 -134c-205 0 -371 161 -371 358s166 359 371 359c116 0 220 -53 288 -135l-66 -55c-51 66 -131 110 -222 110c-156 0 -283 -120 -283 -279c0 -158 127 -278 283 -278zM419 856c25 0 45 -20 45 -45
s-20 -45 -45 -45s-45 20 -45 45s20 45 45 45z" />
    <glyph glyph-name="Ccaron" unicode="&#x10c;" horiz-adv-x="756" 
d="M423 74c91 0 171 43 222 109l66 -55c-68 -82 -172 -134 -288 -134c-205 0 -371 161 -371 358s166 359 371 359c116 0 220 -53 288 -135l-66 -55c-51 66 -131 110 -222 110c-156 0 -283 -120 -283 -279c0 -158 127 -278 283 -278zM392 755l-143 143h66l104 -97l104 97h67
l-144 -143h-54z" />
    <glyph glyph-name="ccircumflex" unicode="&#x109;" horiz-adv-x="583" 
d="M487 144l54 -50c-49 -62 -122 -100 -202 -100c-163 0 -295 125 -295 278c0 154 132 279 295 279c83 0 155 -38 203 -98l-55 -50c-35 45 -88 74 -148 74c-118 0 -213 -92 -213 -205c0 -112 95 -204 213 -204c59 0 113 30 148 76zM155 614l143 143h54l144 -143h-67l-104 97
l-104 -97h-66z" />
    <glyph glyph-name="cacute" unicode="&#x107;" horiz-adv-x="583" 
d="M487 144l54 -50c-49 -62 -122 -100 -202 -100c-163 0 -295 125 -295 278c0 154 132 279 295 279c83 0 155 -38 203 -98l-55 -50c-35 45 -88 74 -148 74c-118 0 -213 -92 -213 -205c0 -112 95 -204 213 -204c59 0 113 30 148 76zM533 771l-174 -157h-58l139 164z" />
    <glyph glyph-name="cdotaccent" unicode="&#x10b;" horiz-adv-x="583" 
d="M487 144l54 -50c-49 -62 -122 -100 -202 -100c-163 0 -295 125 -295 278c0 154 132 279 295 279c83 0 155 -38 203 -98l-55 -50c-35 45 -88 74 -148 74c-118 0 -213 -92 -213 -205c0 -112 95 -204 213 -204c59 0 113 30 148 76zM334 715c25 0 45 -20 45 -45
s-20 -45 -45 -45s-45 20 -45 45s20 45 45 45z" />
    <glyph glyph-name="ccaron" unicode="&#x10d;" horiz-adv-x="583" 
d="M487 144l54 -50c-49 -62 -122 -100 -202 -100c-163 0 -295 125 -295 278c0 154 132 279 295 279c83 0 155 -38 203 -98l-55 -50c-35 45 -88 74 -148 74c-118 0 -213 -92 -213 -205c0 -112 95 -204 213 -204c59 0 113 30 148 76zM300 614l-143 143h66l104 -97l104 97h67
l-144 -143h-54z" />
    <glyph glyph-name="Dcroat" unicode="&#x110;" horiz-adv-x="766" 
d="M16 318v69h98v318h245c196 0 355 -158 355 -353c0 -187 -147 -352 -332 -352h-268v318h-98zM197 77h178c139 0 254 129 254 275c0 153 -121 276 -270 276h-162v-241h182v-69h-182v-241zM165 782v55h316v-55h-316z" />
    <glyph glyph-name="Dcaron" unicode="&#x10e;" 
d="M685 352c0 -187 -147 -352 -332 -352h-268v705h245c196 0 355 -158 355 -353zM168 77h178c139 0 254 129 254 275c0 153 -121 276 -270 276h-162v-551zM297 755l-143 143h66l104 -97l104 97h67l-144 -143h-54z" />
    <glyph glyph-name="dcaron" unicode="&#x10f;" horiz-adv-x="767" 
d="M512 754h82v-754h-82v52c-48 -36 -117 -58 -188 -58c-153 0 -279 118 -279 278c0 162 126 279 279 279c73 0 138 -22 188 -57v260zM336 68c71 0 133 24 176 65v281c-42 39 -104 63 -176 63c-116 0 -208 -90 -208 -205c0 -116 92 -204 208 -204zM714 705
c36 0 52 -28 52 -69c0 -63 -34 -133 -128 -133l-12 35c47 2 81 21 83 69c-24 4 -43 24 -43 49c0 28 23 49 48 49z" />
    <glyph glyph-name="dcroat" unicode="&#x111;" horiz-adv-x="670" 
d="M712 667v-70h-118v-597h-82v52c-48 -36 -117 -58 -188 -58c-153 0 -279 118 -279 278c0 162 126 279 279 279c73 0 138 -22 188 -57v103h-116v70h116v87h82v-87h118zM336 68c71 0 133 24 176 65v281c-42 39 -104 63 -176 63c-116 0 -208 -90 -208 -205
c0 -116 92 -204 208 -204z" />
    <glyph glyph-name="Emacron" unicode="&#x112;" horiz-adv-x="644" 
d="M168 73h427v-73h-510v705h489v-73h-406v-254h344v-72h-344v-233zM175 782v55h316v-55h-316z" />
    <glyph glyph-name="Edotaccent" unicode="&#x116;" horiz-adv-x="644" 
d="M168 73h427v-73h-510v705h489v-73h-406v-254h344v-72h-344v-233zM334 856c25 0 45 -20 45 -45s-20 -45 -45 -45s-45 20 -45 45s20 45 45 45z" />
    <glyph glyph-name="Ebreve" unicode="&#x114;" horiz-adv-x="644" 
d="M168 73h427v-73h-510v705h489v-73h-406v-254h344v-72h-344v-233zM335 770c-90 0 -151 43 -158 136l55 4c8 -57 43 -84 103 -84c58 0 95 27 102 84l56 -4c-8 -93 -69 -136 -158 -136z" />
    <glyph glyph-name="Ecaron" unicode="&#x11a;" horiz-adv-x="644" 
d="M168 73h427v-73h-510v705h489v-73h-406v-254h344v-72h-344v-233zM307 755l-143 143h66l104 -97l104 97h67l-144 -143h-54z" />
    <glyph glyph-name="Eogonek" unicode="&#x118;" horiz-adv-x="644" 
d="M623 -121l3 -45c-21 -4 -38 -6 -55 -6c-60 0 -92 27 -92 75c0 40 41 83 55 97h-449v705h489v-73h-406v-254h344v-72h-344v-233h427v-73c-4 -5 -52 -50 -52 -84c0 -26 19 -41 49 -41c9 0 18 2 31 4z" />
    <glyph glyph-name="emacron" unicode="&#x113;" horiz-adv-x="627" 
d="M581 246h-453c14 -106 105 -179 206 -179c68 0 130 28 172 79l55 -44c-50 -66 -137 -108 -241 -108c-162 0 -275 125 -275 278c0 154 113 279 275 279s262 -117 262 -283c0 -9 -1 -22 -1 -22zM320 483c-103 0 -178 -75 -191 -172h372c-8 98 -68 172 -181 172zM165 641v55
h316v-55h-316z" />
    <glyph glyph-name="edotaccent" unicode="&#x117;" horiz-adv-x="627" 
d="M581 246h-453c14 -106 105 -179 206 -179c68 0 130 28 172 79l55 -44c-50 -66 -137 -108 -241 -108c-162 0 -275 125 -275 278c0 154 113 279 275 279s262 -117 262 -283c0 -9 -1 -22 -1 -22zM320 483c-103 0 -178 -75 -191 -172h372c-8 98 -68 172 -181 172zM316 715
c25 0 45 -20 45 -45s-20 -45 -45 -45s-45 20 -45 45s20 45 45 45z" />
    <glyph glyph-name="ebreve" unicode="&#x115;" horiz-adv-x="627" 
d="M581 246h-453c14 -106 105 -179 206 -179c68 0 130 28 172 79l55 -44c-50 -66 -137 -108 -241 -108c-162 0 -275 125 -275 278c0 154 113 279 275 279s262 -117 262 -283c0 -9 -1 -22 -1 -22zM320 483c-103 0 -178 -75 -191 -172h372c-8 98 -68 172 -181 172zM317 629
c-90 0 -151 43 -158 136l55 4c8 -57 43 -84 103 -84c58 0 95 27 102 84l56 -4c-8 -93 -69 -136 -158 -136z" />
    <glyph glyph-name="ecaron" unicode="&#x11b;" horiz-adv-x="627" 
d="M581 246h-453c14 -106 105 -179 206 -179c68 0 130 28 172 79l55 -44c-50 -66 -137 -108 -241 -108c-162 0 -275 125 -275 278c0 154 113 279 275 279s262 -117 262 -283c0 -9 -1 -22 -1 -22zM320 483c-103 0 -178 -75 -191 -172h372c-8 98 -68 172 -181 172zM289 614
l-143 143h66l104 -97l104 97h67l-144 -143h-54z" />
    <glyph glyph-name="eogonek" unicode="&#x119;" horiz-adv-x="627" 
d="M424 -118l3 -45c-21 -4 -38 -6 -55 -6c-60 0 -92 27 -92 75c0 34 29 69 47 88h-7c-162 0 -275 125 -275 278c0 154 113 279 275 279s262 -117 262 -283c0 -9 -1 -22 -1 -22h-453c14 -106 105 -179 206 -179c68 0 130 28 172 79l55 -44c-38 -50 -96 -86 -166 -101
c-8 -8 -51 -50 -51 -82c0 -26 19 -41 49 -41c9 0 18 2 31 4zM320 483c-103 0 -178 -75 -191 -172h372c-8 98 -68 172 -181 172z" />
    <glyph glyph-name="Gcircumflex" unicode="&#x11c;" horiz-adv-x="791" 
d="M408 338h322v-241c-78 -63 -186 -103 -305 -103c-206 0 -373 161 -373 358s167 358 373 358c116 0 212 -39 279 -101l-54 -59c-55 50 -133 81 -225 81c-158 0 -286 -125 -286 -279c0 -157 128 -282 286 -282c86 0 161 26 219 69v128h-236v71zM244 755l143 143h54
l144 -143h-67l-104 97l-104 -97h-66z" />
    <glyph glyph-name="Gdotaccent" unicode="&#x120;" horiz-adv-x="791" 
d="M408 338h322v-241c-78 -63 -186 -103 -305 -103c-206 0 -373 161 -373 358s167 358 373 358c116 0 212 -39 279 -101l-54 -59c-55 50 -133 81 -225 81c-158 0 -286 -125 -286 -279c0 -157 128 -282 286 -282c86 0 161 26 219 69v128h-236v71zM414 856c25 0 45 -20 45 -45
s-20 -45 -45 -45s-45 20 -45 45s20 45 45 45z" />
    <glyph glyph-name="Gbreve" unicode="&#x11e;" horiz-adv-x="791" 
d="M408 338h322v-241c-78 -63 -186 -103 -305 -103c-206 0 -373 161 -373 358s167 358 373 358c116 0 212 -39 279 -101l-54 -59c-55 50 -133 81 -225 81c-158 0 -286 -125 -286 -279c0 -157 128 -282 286 -282c86 0 161 26 219 69v128h-236v71zM415 770
c-90 0 -151 43 -158 136l55 4c8 -57 43 -84 103 -84c58 0 95 27 102 84l56 -4c-8 -93 -69 -136 -158 -136z" />
    <glyph glyph-name="gcircumflex" unicode="&#x11d;" horiz-adv-x="670" 
d="M511 541h83v-463c0 -135 -81 -265 -268 -265c-127 0 -151 12 -230 35l16 62c68 -20 108 -32 197 -32c131 0 191 80 198 165c0 5 1 12 1 17c-49 -33 -112 -54 -185 -54c-153 0 -278 116 -278 273s125 272 278 272c71 0 140 -23 188 -59v49zM127 278
c0 -113 92 -198 209 -198c72 0 133 22 175 61v272c-43 40 -105 64 -175 64c-117 0 -209 -88 -209 -199zM166 614l143 143h54l144 -143h-67l-104 97l-104 -97h-66z" />
    <glyph glyph-name="gdotaccent" unicode="&#x121;" horiz-adv-x="670" 
d="M511 541h83v-463c0 -135 -81 -265 -268 -265c-127 0 -151 12 -230 35l16 62c68 -20 108 -32 197 -32c131 0 191 80 198 165c0 5 1 12 1 17c-49 -33 -112 -54 -185 -54c-153 0 -278 116 -278 273s125 272 278 272c71 0 140 -23 188 -59v49zM127 278
c0 -113 92 -198 209 -198c72 0 133 22 175 61v272c-43 40 -105 64 -175 64c-117 0 -209 -88 -209 -199zM336 715c25 0 45 -20 45 -45s-20 -45 -45 -45s-45 20 -45 45s20 45 45 45z" />
    <glyph glyph-name="gbreve" unicode="&#x11f;" horiz-adv-x="670" 
d="M511 541h83v-463c0 -135 -81 -265 -268 -265c-127 0 -151 12 -230 35l16 62c68 -20 108 -32 197 -32c131 0 191 80 198 165c0 5 1 12 1 17c-49 -33 -112 -54 -185 -54c-153 0 -278 116 -278 273s125 272 278 272c71 0 140 -23 188 -59v49zM127 278
c0 -113 92 -198 209 -198c72 0 133 22 175 61v272c-43 40 -105 64 -175 64c-117 0 -209 -88 -209 -199zM337 629c-90 0 -151 43 -158 136l55 4c8 -57 43 -84 103 -84c58 0 95 27 102 84l56 -4c-8 -93 -69 -136 -158 -136z" />
    <glyph glyph-name="Gcommaaccent" unicode="&#x122;" horiz-adv-x="791" 
d="M408 338h322v-241c-78 -63 -186 -103 -305 -103c-206 0 -373 161 -373 358s167 358 373 358c116 0 212 -39 279 -101l-54 -59c-55 50 -133 81 -225 81c-158 0 -286 -125 -286 -279c0 -157 128 -282 286 -282c86 0 161 26 219 69v128h-236v71zM424 -62c35 0 51 -28 51 -70
c0 -62 -33 -132 -128 -132l-12 35c47 1 81 20 83 69c-24 3 -42 23 -42 49c0 27 22 49 48 49z" />
    <glyph glyph-name="gcommaaccent" unicode="&#x123;" horiz-adv-x="670" 
d="M511 541h83v-463c0 -135 -81 -265 -268 -265c-127 0 -151 12 -230 35l16 62c68 -20 108 -32 197 -32c131 0 191 80 198 165c0 5 1 12 1 17c-49 -33 -112 -54 -185 -54c-153 0 -278 116 -278 273s125 272 278 272c71 0 140 -23 188 -59v49zM127 278
c0 -113 92 -198 209 -198c72 0 133 22 175 61v272c-43 40 -105 64 -175 64c-117 0 -209 -88 -209 -199zM335 634c-35 0 -51 28 -51 70c0 62 33 132 128 132l12 -35c-47 -1 -81 -20 -83 -69c24 -3 42 -23 42 -49c0 -27 -22 -49 -48 -49z" />
    <glyph glyph-name="Hcircumflex" unicode="&#x124;" 
d="M568 705h84v-705h-84v271h-400v-271h-83v705h83v-361h400v361zM211 755l143 143h54l144 -143h-67l-104 97l-104 -97h-66z" />
    <glyph glyph-name="hcircumflex" unicode="&#x125;" horiz-adv-x="637" 
d="M340 551c144 0 232 -78 232 -244v-307h-83v307c0 112 -67 170 -162 170c-71 0 -125 -23 -168 -60v-417h-83v754h83v-262c45 38 109 59 181 59zM162 755l143 143h54l144 -143h-67l-104 97l-104 -97h-66z" />
    <glyph glyph-name="Hbar" unicode="&#x126;" 
d="M44 565v58h41v82h83v-82h400v82h84v-82h40v-58h-40v-565h-84v271h-400v-271h-83v565h-41zM168 344h400v221h-400v-221z" />
    <glyph glyph-name="hbar" unicode="&#x127;" horiz-adv-x="637" 
d="M-16 566v57h92v131h83v-131h93v-57h-93v-74c45 38 109 59 181 59c144 0 232 -78 232 -244v-307h-83v307c0 112 -67 170 -162 170c-71 0 -125 -23 -168 -60v-417h-83v566h-92z" />
    <glyph glyph-name="Itilde" unicode="&#x128;" horiz-adv-x="259" 
d="M173 705v-705h-87v705h87zM-17 765l-44 5c7 82 49 128 111 128c61 0 116 -45 163 -45c30 0 57 25 67 71l44 -6c-8 -82 -53 -127 -105 -127c-59 0 -118 46 -162 46c-39 0 -63 -27 -74 -72z" />
    <glyph glyph-name="Imacron" unicode="&#x12a;" horiz-adv-x="259" 
d="M173 705v-705h-87v705h87zM-29 795v55h316v-55h-316z" />
    <glyph glyph-name="Idotaccent" unicode="&#x130;" horiz-adv-x="259" 
d="M173 705v-705h-87v705h87zM130 869c25 0 45 -20 45 -45s-20 -45 -45 -45s-45 20 -45 45s20 45 45 45z" />
    <glyph glyph-name="Ibreve" unicode="&#x12c;" horiz-adv-x="259" 
d="M173 705v-705h-87v705h87zM130 783c-90 0 -151 43 -158 136l55 4c8 -57 43 -84 103 -84c58 0 95 27 102 84l56 -4c-8 -93 -69 -136 -158 -136z" />
    <glyph glyph-name="Iogonek" unicode="&#x12e;" horiz-adv-x="259" 
d="M201 -121l3 -45c-21 -4 -38 -6 -55 -6c-60 0 -92 27 -92 75c0 40 41 83 55 97h-26v705h87v-705c-4 -5 -52 -50 -52 -84c0 -26 19 -41 49 -41c9 0 18 2 31 4z" />
    <glyph glyph-name="itilde" unicode="&#x129;" horiz-adv-x="240" 
d="M-27 601l-44 5c7 82 49 128 111 128c61 0 116 -45 163 -45c30 0 57 25 67 71l44 -6c-8 -82 -53 -127 -105 -127c-59 0 -118 46 -162 46c-39 0 -63 -27 -74 -72zM78 0v541h83v-541h-83z" />
    <glyph glyph-name="imacron" unicode="&#x12b;" horiz-adv-x="240" 
d="M-38 631v55h316v-55h-316zM78 0v541h83v-541h-83z" />
    <glyph glyph-name="ibreve" unicode="&#x12d;" horiz-adv-x="240" 
d="M121 619c-90 0 -151 43 -158 136l55 4c8 -57 43 -84 103 -84c58 0 95 27 102 84l56 -4c-8 -93 -69 -136 -158 -136zM78 0v541h83v-541h-83z" />
    <glyph glyph-name="iogonek" unicode="&#x12f;" horiz-adv-x="240" 
d="M78 0v541h83v-541c-4 -5 -52 -50 -52 -84c0 -26 19 -41 49 -41c9 0 18 2 31 4l3 -45c-21 -4 -38 -6 -55 -6c-60 0 -92 27 -92 75c0 40 41 83 55 97h-22zM120 631c-29 0 -53 23 -53 52s24 51 53 51c28 0 51 -22 51 -51s-23 -52 -51 -52z" />
    <glyph glyph-name="IJ" unicode="&#x132;" horiz-adv-x="851" 
d="M173 705v-705h-87v705h87zM697 705h85v-417c0 -173 -79 -294 -250 -294c-125 0 -228 92 -245 213l75 7c16 -81 82 -141 168 -141c110 0 167 82 167 195v437z" />
    <glyph glyph-name="ij" unicode="&#x133;" horiz-adv-x="481" 
d="M78 0v541h83v-541h-83zM120 631c-29 0 -53 23 -53 52s24 51 53 51c28 0 51 -22 51 -51s-23 -52 -51 -52zM319 10v531h84v-565c0 -108 -70 -163 -156 -163c-25 0 -45 3 -61 6v67c8 -1 18 -1 28 -1c70 0 105 36 105 125zM360 631c-29 0 -52 23 -52 52s23 51 52 51
s52 -22 52 -51s-23 -52 -52 -52z" />
    <glyph glyph-name="Jcircumflex" unicode="&#x134;" horiz-adv-x="594" 
d="M434 705h85v-417c0 -173 -79 -294 -250 -294c-125 0 -228 92 -245 213l75 7c16 -81 82 -141 168 -141c110 0 167 82 167 195v437zM166 755l143 143h54l144 -143h-67l-104 97l-104 -97h-66z" />
    <glyph glyph-name="jcircumflex" unicode="&#x135;" horiz-adv-x="239" 
d="M77 10v531h84v-565c0 -108 -70 -163 -156 -163c-25 0 -45 3 -61 6v67c8 -1 18 -1 28 -1c70 0 105 36 105 125zM-50 614l143 143h54l144 -143h-67l-104 97l-104 -97h-66z" />
    <glyph glyph-name="Kcommaaccent" unicode="&#x136;" horiz-adv-x="698" 
d="M345 361l321 -361h-114l-263 298l-121 -131v-167h-83v705h83v-419l384 419h105zM338 -62c35 0 51 -28 51 -70c0 -62 -33 -132 -128 -132l-12 35c47 1 81 20 83 69c-24 3 -42 23 -42 49c0 27 22 49 48 49z" />
    <glyph glyph-name="kcommaaccent" unicode="&#x137;" horiz-adv-x="609" 
d="M381 333l210 -333h-94l-172 270l-166 -157v-113h-83v754h83v-532l329 319h102zM307 -62c35 0 51 -28 51 -70c0 -62 -33 -132 -128 -132l-12 35c47 1 81 20 83 69c-24 3 -42 23 -42 49c0 27 22 49 48 49z" />
    <glyph glyph-name="kgreenlandic" unicode="&#x138;" horiz-adv-x="609" 
d="M381 333l210 -333h-94l-172 270l-166 -157v-113h-83v541h83v-319l329 319h102z" />
    <glyph glyph-name="Lacute" unicode="&#x139;" horiz-adv-x="599" 
d="M171 71h391v-71h-477v705h86v-634zM324 912l-174 -157h-58l139 164z" />
    <glyph glyph-name="lacute" unicode="&#x13a;" horiz-adv-x="239" 
d="M77 0v754h84v-754h-84zM327 961l-174 -157h-58l139 164z" />
    <glyph glyph-name="Lcommaaccent" unicode="&#x13b;" horiz-adv-x="599" 
d="M171 71h391v-71h-477v705h86v-634zM323 -62c35 0 51 -28 51 -70c0 -62 -33 -132 -128 -132l-12 35c47 1 81 20 83 69c-24 3 -42 23 -42 49c0 27 22 49 48 49z" />
    <glyph glyph-name="lcommaaccent" unicode="&#x13c;" horiz-adv-x="239" 
d="M77 0v754h84v-754h-84zM115 -62c35 0 51 -28 51 -70c0 -62 -33 -132 -128 -132l-12 35c47 1 81 20 83 69c-24 3 -42 23 -42 49c0 27 22 49 48 49z" />
    <glyph glyph-name="Ldot" unicode="&#x13f;" horiz-adv-x="599" 
d="M171 71h391v-71h-477v705h86v-634zM341 514c0 -29 -23 -52 -52 -52s-52 23 -52 52s23 52 52 52s52 -23 52 -52z" />
    <glyph glyph-name="ldot" unicode="&#x140;" horiz-adv-x="329" 
d="M77 0v754h84v-754h-84zM316 514c0 -29 -23 -52 -52 -52s-52 23 -52 52s23 52 52 52s52 -23 52 -52z" />
    <glyph glyph-name="Lcaron" unicode="&#x13d;" horiz-adv-x="599" 
d="M171 71h391v-71h-477v705h86v-634zM326 706c36 0 52 -28 52 -69c0 -63 -34 -133 -128 -133l-12 35c47 2 81 21 83 69c-24 4 -43 24 -43 49c0 28 23 49 48 49z" />
    <glyph glyph-name="lcaron" unicode="&#x13e;" horiz-adv-x="360" 
d="M77 0v754h84v-754h-84zM309 705c36 0 52 -28 52 -69c0 -63 -34 -133 -128 -133l-12 35c47 2 81 21 83 69c-24 4 -43 24 -43 49c0 28 23 49 48 49z" />
    <glyph glyph-name="Nacute" unicode="&#x143;" horiz-adv-x="773" 
d="M603 705h85v-705h-45l-472 544v-544h-86v705h45l473 -544v544zM591 912l-174 -157h-58l139 164z" />
    <glyph glyph-name="Ncaron" unicode="&#x147;" horiz-adv-x="773" 
d="M603 705h85v-705h-45l-472 544v-544h-86v705h45l473 -544v544zM359 755l-143 143h66l104 -97l104 97h67l-144 -143h-54z" />
    <glyph glyph-name="nacute" unicode="&#x144;" horiz-adv-x="638" 
d="M340 551c144 0 232 -78 232 -244v-307h-83v307c0 112 -66 170 -162 170c-71 0 -125 -23 -168 -61v-416h-83v541h83v-52c45 40 109 62 181 62zM518 761l-174 -157h-58l139 164z" />
    <glyph glyph-name="ncaron" unicode="&#x148;" horiz-adv-x="638" 
d="M340 551c144 0 232 -78 232 -244v-307h-83v307c0 112 -66 170 -162 170c-71 0 -125 -23 -168 -61v-416h-83v541h83v-52c45 40 109 62 181 62zM286 604l-143 143h66l104 -97l104 97h67l-144 -143h-54z" />
    <glyph glyph-name="Ncommaaccent" unicode="&#x145;" horiz-adv-x="773" 
d="M603 705h85v-705h-45l-472 544v-544h-86v705h45l473 -544v544zM392 -62c35 0 51 -28 51 -70c0 -62 -33 -132 -128 -132l-12 35c47 1 81 20 83 69c-24 3 -42 23 -42 49c0 27 22 49 48 49z" />
    <glyph glyph-name="ncommaaccent" unicode="&#x146;" horiz-adv-x="638" 
d="M340 551c144 0 232 -78 232 -244v-307h-83v307c0 112 -66 170 -162 170c-71 0 -125 -23 -168 -61v-416h-83v541h83v-52c45 40 109 62 181 62zM331 -62c35 0 51 -28 51 -70c0 -62 -33 -132 -128 -132l-12 35c47 1 81 20 83 69c-24 3 -42 23 -42 49c0 27 22 49 48 49z" />
    <glyph glyph-name="napostrophe" unicode="&#x149;" horiz-adv-x="638" 
d="M340 551c144 0 232 -78 232 -244v-307h-83v307c0 112 -66 170 -162 170c-71 0 -125 -23 -168 -61v-416h-83v541h83v-52c45 40 109 62 181 62zM140 804c35 0 51 -28 51 -70c0 -62 -33 -132 -128 -132l-12 35c47 1 81 20 83 69c-24 3 -42 23 -42 49c0 27 22 49 48 49z" />
    <glyph glyph-name="Eng" unicode="&#x14a;" horiz-adv-x="773" 
d="M603 705h85v-695c0 -165 -84 -278 -250 -278c-125 0 -228 92 -245 212l75 8c16 -81 82 -141 168 -141c133 0 166 95 166 229l-431 513v-553h-86v705h45l473 -553v553z" />
    <glyph glyph-name="eng" unicode="&#x14b;" horiz-adv-x="638" 
d="M340 551c144 0 232 -78 232 -244v-331c0 -108 -70 -163 -156 -163c-25 0 -45 3 -61 6v67c8 -1 18 -1 29 -1c65 0 105 34 105 112v310c0 112 -67 170 -162 170c-71 0 -125 -23 -168 -61v-416h-83v541h83v-52c45 40 109 62 181 62z" />
    <glyph glyph-name="Omacron" unicode="&#x14c;" horiz-adv-x="850" 
d="M424 710c207 0 373 -161 373 -358s-166 -358 -373 -358c-205 0 -372 161 -372 358s167 358 372 358zM424 73c158 0 285 125 285 279s-127 279 -285 279c-157 0 -285 -125 -285 -279s128 -279 285 -279zM261 782v55h316v-55h-316z" />
    <glyph glyph-name="Obreve" unicode="&#x14e;" horiz-adv-x="850" 
d="M424 710c207 0 373 -161 373 -358s-166 -358 -373 -358c-205 0 -372 161 -372 358s167 358 372 358zM424 73c158 0 285 125 285 279s-127 279 -285 279c-157 0 -285 -125 -285 -279s128 -279 285 -279zM421 770c-90 0 -151 43 -158 136l55 4c8 -57 43 -84 103 -84
c58 0 95 27 102 84l56 -4c-8 -93 -69 -136 -158 -136z" />
    <glyph glyph-name="Ohungarumlaut" unicode="&#x150;" horiz-adv-x="850" 
d="M424 710c207 0 373 -161 373 -358s-166 -358 -373 -358c-205 0 -372 161 -372 358s167 358 372 358zM424 73c158 0 285 125 285 279s-127 279 -285 279c-157 0 -285 -125 -285 -279s128 -279 285 -279zM403 918l75 -25l-106 -135h-63zM559 918l79 -26l-110 -134h-62z" />
    <glyph glyph-name="omacron" unicode="&#x14d;" horiz-adv-x="677" 
d="M338 551c162 0 294 -125 294 -279c0 -153 -132 -278 -294 -278c-163 0 -295 125 -295 278c0 154 132 279 295 279zM338 68c117 0 212 92 212 204c0 113 -95 205 -212 205c-118 0 -213 -92 -213 -205c0 -112 95 -204 213 -204zM181 631v55h316v-55h-316z" />
    <glyph glyph-name="obreve" unicode="&#x14f;" horiz-adv-x="677" 
d="M338 551c162 0 294 -125 294 -279c0 -153 -132 -278 -294 -278c-163 0 -295 125 -295 278c0 154 132 279 295 279zM338 68c117 0 212 92 212 204c0 113 -95 205 -212 205c-118 0 -213 -92 -213 -205c0 -112 95 -204 213 -204zM338 619c-90 0 -151 43 -158 136l55 4
c8 -57 43 -84 103 -84c58 0 95 27 102 84l56 -4c-8 -93 -69 -136 -158 -136z" />
    <glyph glyph-name="ohungarumlaut" unicode="&#x151;" horiz-adv-x="677" 
d="M338 551c162 0 294 -125 294 -279c0 -153 -132 -278 -294 -278c-163 0 -295 125 -295 278c0 154 132 279 295 279zM338 68c117 0 212 92 212 204c0 113 -95 205 -212 205c-118 0 -213 -92 -213 -205c0 -112 95 -204 213 -204zM316 767l75 -25l-106 -135h-63zM472 767
l79 -26l-110 -134h-62z" />
    <glyph glyph-name="Racute" unicode="&#x154;" horiz-adv-x="684" 
d="M550 0l-160 218c-15 -1 -31 -2 -47 -2h-172v-216h-86v705h289c193 0 259 -114 259 -238c0 -125 -58 -201 -157 -232l178 -235h-104zM171 632v-345h169c128 0 204 58 204 175c0 88 -47 170 -181 170h-192zM531 912l-174 -157h-58l139 164z" />
    <glyph glyph-name="Rcaron" unicode="&#x158;" horiz-adv-x="684" 
d="M550 0l-160 218c-15 -1 -31 -2 -47 -2h-172v-216h-86v705h289c193 0 259 -114 259 -238c0 -125 -58 -201 -157 -232l178 -235h-104zM171 632v-345h169c128 0 204 58 204 175c0 88 -47 170 -181 170h-192zM305 755l-143 143h66l104 -97l104 97h67l-144 -143h-54z" />
    <glyph glyph-name="racute" unicode="&#x155;" horiz-adv-x="435" 
d="M159 541v-106c34 69 95 115 178 116c20 0 43 -5 66 -16l-6 -81c-28 11 -54 16 -77 16c-103 0 -161 -93 -161 -196v-274h-83v541h83zM327 771l-174 -157h-58l139 164z" />
    <glyph glyph-name="rcaron" unicode="&#x159;" horiz-adv-x="435" 
d="M159 541v-106c34 69 95 115 178 116c20 0 43 -5 66 -16l-6 -81c-28 11 -54 16 -77 16c-103 0 -161 -93 -161 -196v-274h-83v541h83zM200 614l-143 143h66l104 -97l104 97h67l-144 -143h-54z" />
    <glyph glyph-name="Rcommaaccent" unicode="&#x156;" horiz-adv-x="684" 
d="M550 0l-160 218c-15 -1 -31 -2 -47 -2h-172v-216h-86v705h289c193 0 259 -114 259 -238c0 -125 -58 -201 -157 -232l178 -235h-104zM171 632v-345h169c128 0 204 58 204 175c0 88 -47 170 -181 170h-192zM355 -62c35 0 51 -28 51 -70c0 -62 -33 -132 -128 -132l-12 35
c47 1 81 20 83 69c-24 3 -42 23 -42 49c0 27 22 49 48 49z" />
    <glyph glyph-name="rcommaaccent" unicode="&#x157;" horiz-adv-x="435" 
d="M159 541v-106c34 69 95 115 178 116c20 0 43 -5 66 -16l-6 -81c-28 11 -54 16 -77 16c-103 0 -161 -93 -161 -196v-274h-83v541h83zM120 -62c35 0 51 -28 51 -70c0 -62 -33 -132 -128 -132l-12 35c47 1 81 20 83 69c-24 3 -42 23 -42 49c0 27 22 49 48 49z" />
    <glyph glyph-name="Scircumflex" unicode="&#x15c;" horiz-adv-x="640" 
d="M340 391c142 -33 250 -76 250 -199c0 -126 -104 -200 -261 -200c-115 0 -167 9 -279 65l32 66c100 -49 153 -57 250 -57c104 0 171 44 171 120c0 74 -75 103 -185 129c-143 34 -261 71 -261 201c0 114 94 195 248 195c93 0 192 -24 257 -55l-36 -68
c-60 29 -153 49 -222 49c-101 0 -161 -48 -161 -116c0 -74 80 -102 197 -130zM144 755l143 143h54l144 -143h-67l-104 97l-104 -97h-66z" />
    <glyph glyph-name="Sacute" unicode="&#x15a;" horiz-adv-x="640" 
d="M340 391c142 -33 250 -76 250 -199c0 -126 -104 -200 -261 -200c-115 0 -167 9 -279 65l32 66c100 -49 153 -57 250 -57c104 0 171 44 171 120c0 74 -75 103 -185 129c-143 34 -261 71 -261 201c0 114 94 195 248 195c93 0 192 -24 257 -55l-36 -68
c-60 29 -153 49 -222 49c-101 0 -161 -48 -161 -116c0 -74 80 -102 197 -130zM518 912l-174 -157h-58l139 164z" />
    <glyph glyph-name="Scaron" unicode="&#x160;" horiz-adv-x="640" 
d="M340 391c142 -33 250 -76 250 -199c0 -126 -104 -200 -261 -200c-115 0 -167 9 -279 65l32 66c100 -49 153 -57 250 -57c104 0 171 44 171 120c0 74 -75 103 -185 129c-143 34 -261 71 -261 201c0 114 94 195 248 195c93 0 192 -24 257 -55l-36 -68
c-60 29 -153 49 -222 49c-101 0 -161 -48 -161 -116c0 -74 80 -102 197 -130zM286 755l-143 143h66l104 -97l104 97h67l-144 -143h-54z" />
    <glyph glyph-name="scircumflex" unicode="&#x15d;" horiz-adv-x="529" 
d="M43 44l31 62c63 -25 125 -45 199 -45c100 0 136 44 136 90c0 52 -56 73 -153 93c-118 25 -203 63 -203 154c0 89 83 153 201 153c76 0 142 -17 204 -42l-28 -62c-55 24 -117 36 -178 36c-73 0 -124 -33 -124 -81s51 -69 152 -89c125 -25 206 -64 206 -158
c0 -89 -67 -161 -215 -161c-89 0 -158 19 -228 50zM83 604l143 143h54l144 -143h-67l-104 97l-104 -97h-66z" />
    <glyph glyph-name="sacute" unicode="&#x15b;" horiz-adv-x="529" 
d="M43 44l31 62c63 -25 125 -45 199 -45c100 0 136 44 136 90c0 52 -56 73 -153 93c-118 25 -203 63 -203 154c0 89 83 153 201 153c76 0 142 -17 204 -42l-28 -62c-55 24 -117 36 -178 36c-73 0 -124 -33 -124 -81s51 -69 152 -89c125 -25 206 -64 206 -158
c0 -89 -67 -161 -215 -161c-89 0 -158 19 -228 50zM455 761l-174 -157h-58l139 164z" />
    <glyph glyph-name="scaron" unicode="&#x161;" horiz-adv-x="529" 
d="M43 44l31 62c63 -25 125 -45 199 -45c100 0 136 44 136 90c0 52 -56 73 -153 93c-118 25 -203 63 -203 154c0 89 83 153 201 153c76 0 142 -17 204 -42l-28 -62c-55 24 -117 36 -178 36c-73 0 -124 -33 -124 -81s51 -69 152 -89c125 -25 206 -64 206 -158
c0 -89 -67 -161 -215 -161c-89 0 -158 19 -228 50zM228 604l-143 143h66l104 -97l104 97h67l-144 -143h-54z" />
    <glyph glyph-name="Scedilla" unicode="&#x15e;" horiz-adv-x="640" 
d="M266 -76l48 68c-105 1 -157 11 -264 65l32 66c100 -49 153 -57 250 -57c104 0 171 44 171 120c0 74 -75 103 -185 129c-143 34 -261 71 -261 201c0 114 94 195 248 195c93 0 192 -24 257 -55l-36 -68c-60 29 -153 49 -222 49c-101 0 -161 -48 -161 -116
c0 -74 80 -102 197 -130c142 -33 250 -76 250 -199c0 -115 -86 -187 -220 -198l-24 -50c25 0 48 -21 48 -58c-3 -34 -31 -73 -105 -73c-34 0 -66 6 -66 6l1 34c12 -3 32 -5 46 -5c44 0 66 20 66 43c0 25 -33 33 -70 33z" />
    <glyph glyph-name="scedilla" unicode="&#x15f;" horiz-adv-x="529" 
d="M198 -76l50 71c-78 3 -141 20 -205 49l31 62c63 -25 125 -45 199 -45c100 0 136 44 136 90c0 52 -56 73 -153 93c-118 25 -203 63 -203 154c0 89 83 153 201 153c76 0 142 -17 204 -42l-28 -62c-55 24 -117 36 -178 36c-73 0 -124 -33 -124 -81s51 -69 152 -89
c125 -25 206 -64 206 -158c0 -83 -58 -151 -183 -160l-25 -51c25 0 48 -21 48 -58c-3 -34 -31 -73 -105 -73c-34 0 -66 6 -66 6l1 34c12 -3 32 -5 46 -5c44 0 66 20 66 43c0 25 -33 33 -70 33z" />
    <glyph glyph-name="Tcedilla" unicode="&#x162;" horiz-adv-x="660" 
d="M267 -76l54 76h-33v632h-241v73h570v-73h-242v-632h-1l-27 -56c25 0 48 -21 48 -58c-3 -34 -31 -73 -105 -73c-34 0 -66 6 -66 6l1 34c12 -3 32 -5 46 -5c44 0 66 20 66 43c0 25 -33 33 -70 33z" />
    <glyph glyph-name="tcedilla" unicode="&#x163;" horiz-adv-x="402" 
d="M231 -76l50 70h-14c-86 0 -156 55 -156 163v315h-89v69h89v213h84v-213h183v-69h-183v-272c0 -100 34 -134 104 -134c35 0 59 4 77 7v-63c-7 -2 -19 -6 -38 -10l-27 -56c25 0 48 -21 48 -58c-3 -34 -31 -73 -105 -73c-34 0 -66 6 -66 6l1 34c12 -3 32 -5 46 -5
c44 0 66 20 66 43c0 25 -33 33 -70 33z" />
    <glyph glyph-name="Tcaron" unicode="&#x164;" horiz-adv-x="660" 
d="M617 705v-73h-242v-632h-87v632h-241v73h570zM306 755l-143 143h66l104 -97l104 97h67l-144 -143h-54z" />
    <glyph glyph-name="tcaron" unicode="&#x165;" horiz-adv-x="429" 
d="M378 472h-183v-272c0 -100 34 -134 104 -134c35 0 59 4 77 7v-63c-13 -4 -49 -16 -109 -16c-86 0 -156 55 -156 163v315h-89v69h89v213h84v-213h183v-69zM428 763c36 0 52 -28 52 -69c0 -63 -34 -133 -128 -133l-12 35c47 2 81 21 83 69c-24 4 -43 24 -43 49
c0 28 23 49 48 49z" />
    <glyph glyph-name="tbar" unicode="&#x167;" horiz-adv-x="402" 
d="M40 316v55h71v101h-89v69h89v213h84v-213h183v-69h-183v-101h161v-55h-161v-116c0 -100 34 -134 104 -134c35 0 59 4 77 7v-63c-13 -4 -49 -16 -109 -16c-86 0 -156 55 -156 163v159h-71z" />
    <glyph glyph-name="Tbar" unicode="&#x166;" horiz-adv-x="660" 
d="M174 345v55h114v232h-241v73h570v-73h-242v-232h115v-55h-115v-345h-87v345h-114z" />
    <glyph glyph-name="Utilde" unicode="&#x168;" horiz-adv-x="755" 
d="M674 705v-422c0 -160 -103 -289 -297 -289c-193 0 -295 128 -295 289v422h84v-404c0 -139 73 -229 211 -229c139 0 214 90 214 229v404h83zM232 752l-44 5c7 82 49 128 111 128c61 0 116 -45 163 -45c30 0 57 25 67 71l44 -6c-8 -82 -53 -127 -105 -127
c-59 0 -118 46 -162 46c-39 0 -63 -27 -74 -72z" />
    <glyph glyph-name="Umacron" unicode="&#x16a;" horiz-adv-x="755" 
d="M674 705v-422c0 -160 -103 -289 -297 -289c-193 0 -295 128 -295 289v422h84v-404c0 -139 73 -229 211 -229c139 0 214 90 214 229v404h83zM220 782v55h316v-55h-316z" />
    <glyph glyph-name="Ubreve" unicode="&#x16c;" horiz-adv-x="755" 
d="M674 705v-422c0 -160 -103 -289 -297 -289c-193 0 -295 128 -295 289v422h84v-404c0 -139 73 -229 211 -229c139 0 214 90 214 229v404h83zM380 770c-90 0 -151 43 -158 136l55 4c8 -57 43 -84 103 -84c58 0 95 27 102 84l56 -4c-8 -93 -69 -136 -158 -136z" />
    <glyph glyph-name="Uhungarumlaut" unicode="&#x170;" horiz-adv-x="755" 
d="M674 705v-422c0 -160 -103 -289 -297 -289c-193 0 -295 128 -295 289v422h84v-404c0 -139 73 -229 211 -229c139 0 214 90 214 229v404h83zM362 918l75 -25l-106 -135h-63zM518 918l79 -26l-110 -134h-62z" />
    <glyph glyph-name="Uring" unicode="&#x16e;" horiz-adv-x="755" 
d="M674 705v-422c0 -160 -103 -289 -297 -289c-193 0 -295 128 -295 289v422h84v-404c0 -139 73 -229 211 -229c139 0 214 90 214 229v404h83zM282 770c0 52 45 96 97 96s97 -44 97 -96s-45 -96 -97 -96s-97 44 -97 96zM379 714c31 0 57 25 57 57c0 30 -26 56 -57 56
s-57 -26 -57 -57s25 -56 57 -56z" />
    <glyph glyph-name="Uogonek" unicode="&#x172;" horiz-adv-x="755" 
d="M467 -121l3 -45c-21 -4 -38 -6 -55 -6c-60 0 -92 27 -92 75c0 36 32 74 50 91c-191 2 -291 129 -291 289v422h84v-404c0 -139 73 -229 211 -229c139 0 214 90 214 229v404h83v-422c0 -143 -82 -260 -236 -284c-7 -8 -51 -50 -51 -83c0 -26 19 -41 49 -41c9 0 18 2 31 4z
" />
    <glyph glyph-name="uring" unicode="&#x16f;" horiz-adv-x="645" 
d="M486 541h83v-541h-83v56c-47 -40 -114 -62 -187 -62c-144 0 -232 78 -232 244v303h82v-303c0 -112 67 -170 163 -170c72 0 129 22 174 61v412zM226 721c0 52 45 96 97 96s97 -44 97 -96s-45 -96 -97 -96s-97 44 -97 96zM323 665c31 0 57 25 57 57c0 30 -26 56 -57 56
s-57 -26 -57 -57s25 -56 57 -56z" />
    <glyph glyph-name="uogonek" unicode="&#x173;" horiz-adv-x="645" 
d="M597 -121l3 -45c-21 -4 -38 -6 -55 -6c-60 0 -92 27 -92 75c0 40 41 83 55 97h-22v56c-47 -40 -114 -62 -187 -62c-144 0 -232 78 -232 244v303h82v-303c0 -112 67 -170 163 -170c72 0 129 22 174 61v412h83v-541c-4 -5 -52 -50 -52 -84c0 -26 19 -41 49 -41
c9 0 18 2 31 4z" />
    <glyph glyph-name="utilde" unicode="&#x169;" horiz-adv-x="645" 
d="M486 541h83v-541h-83v56c-47 -40 -114 -62 -187 -62c-144 0 -232 78 -232 244v303h82v-303c0 -112 67 -170 163 -170c72 0 129 22 174 61v412zM173 601l-44 5c7 82 49 128 111 128c61 0 116 -45 163 -45c30 0 57 25 67 71l44 -6c-8 -82 -53 -127 -105 -127
c-59 0 -118 46 -162 46c-39 0 -63 -27 -74 -72z" />
    <glyph glyph-name="umacron" unicode="&#x16b;" horiz-adv-x="645" 
d="M486 541h83v-541h-83v56c-47 -40 -114 -62 -187 -62c-144 0 -232 78 -232 244v303h82v-303c0 -112 67 -170 163 -170c72 0 129 22 174 61v412zM161 631v55h316v-55h-316z" />
    <glyph glyph-name="ubreve" unicode="&#x16d;" horiz-adv-x="645" 
d="M486 541h83v-541h-83v56c-47 -40 -114 -62 -187 -62c-144 0 -232 78 -232 244v303h82v-303c0 -112 67 -170 163 -170c72 0 129 22 174 61v412zM320 619c-90 0 -151 43 -158 136l55 4c8 -57 43 -84 103 -84c58 0 95 27 102 84l56 -4c-8 -93 -69 -136 -158 -136z" />
    <glyph glyph-name="uhungarumlaut" unicode="&#x171;" horiz-adv-x="645" 
d="M486 541h83v-541h-83v56c-47 -40 -114 -62 -187 -62c-144 0 -232 78 -232 244v303h82v-303c0 -112 67 -170 163 -170c72 0 129 22 174 61v412zM299 767l75 -25l-106 -135h-63zM455 767l79 -26l-110 -134h-62z" />
    <glyph glyph-name="Wcircumflex" unicode="&#x174;" horiz-adv-x="1117" 
d="M1082 705l-271 -705h-39l-217 563l-217 -563h-39l-272 705h92l202 -546l214 546h40l213 -546l202 546h92zM383 755l143 143h54l144 -143h-67l-104 97l-104 -97h-66z" />
    <glyph glyph-name="wcircumflex" unicode="&#x175;" horiz-adv-x="853" 
d="M753 541h83l-207 -541h-43l-159 416l-159 -416h-43l-209 541h84l154 -406l150 406h45l150 -406zM255 595l143 143h54l144 -143h-67l-104 97l-104 -97h-66z" />
    <glyph glyph-name="Ycircumflex" unicode="&#x176;" horiz-adv-x="671" 
d="M556 705h99l-276 -463v-242h-86v242l-276 463h98l221 -374zM166 755l143 143h54l144 -143h-67l-104 97l-104 -97h-66z" />
    <glyph glyph-name="ycircumflex" unicode="&#x177;" horiz-adv-x="613" 
d="M498 541h86l-227 -570c-46 -114 -168 -157 -277 -157c-14 0 -27 0 -39 1l9 63h13c99 0 184 33 218 122h-22l-232 541h88l191 -443h18zM142 604l143 143h54l144 -143h-67l-104 97l-104 -97h-66z" />
    <glyph glyph-name="Zacute" unicode="&#x179;" horiz-adv-x="664" 
d="M614 705v-38l-443 -594h448v-73h-572v37l443 595h-419v73h543zM556 912l-174 -157h-58l139 164z" />
    <glyph glyph-name="Zdotaccent" unicode="&#x17b;" horiz-adv-x="664" 
d="M614 705v-38l-443 -594h448v-73h-572v37l443 595h-419v73h543zM345 856c25 0 45 -20 45 -45s-20 -45 -45 -45s-45 20 -45 45s20 45 45 45z" />
    <glyph glyph-name="Zcaron" unicode="&#x17d;" horiz-adv-x="664" 
d="M614 705v-38l-443 -594h448v-73h-572v37l443 595h-419v73h543zM316 755l-143 143h66l104 -97l104 97h67l-144 -143h-54z" />
    <glyph glyph-name="zacute" unicode="&#x17a;" horiz-adv-x="582" 
d="M547 500l-380 -432h376v-68h-501v43l378 429h-361v69h488v-41zM485 761l-174 -157h-58l139 164z" />
    <glyph glyph-name="zdotaccent" unicode="&#x17c;" horiz-adv-x="582" 
d="M547 500l-380 -432h376v-68h-501v43l378 429h-361v69h488v-41zM296 705c25 0 45 -20 45 -45s-20 -45 -45 -45s-45 20 -45 45s20 45 45 45z" />
    <glyph glyph-name="zcaron" unicode="&#x17e;" horiz-adv-x="582" 
d="M547 500l-380 -432h376v-68h-501v43l378 429h-361v69h488v-41zM273 604l-143 143h66l104 -97l104 97h67l-144 -143h-54z" />
    <glyph glyph-name="Aringacute" unicode="&#x1fa;" 
d="M574 986l-152 -137c26 -17 44 -47 44 -79c0 -40 -27 -76 -63 -90l316 -680h-90l-79 177h-363l-78 -177h-90l315 681c-36 14 -62 49 -62 89c0 52 45 96 97 96h4l108 127zM368 588l-150 -341h301zM369 714c31 0 57 25 57 57c0 30 -26 56 -57 56s-57 -26 -57 -57
s25 -56 57 -56z" />
    <glyph glyph-name="aringacute" unicode="&#x1fb;" horiz-adv-x="669" 
d="M510 541h83v-541h-83v54c-49 -37 -113 -60 -188 -60c-163 0 -275 130 -275 279c0 148 112 278 275 278c71 0 140 -23 188 -60v50zM510 131v281c-43 41 -104 65 -175 65c-120 0 -208 -93 -208 -204s89 -205 208 -205c72 0 133 24 175 63zM544 936l-152 -137
c25 -18 42 -47 42 -78c0 -52 -45 -96 -97 -96s-97 44 -97 96s45 96 97 96h7l107 126zM337 665c31 0 57 25 57 57c0 30 -26 56 -57 56s-57 -26 -57 -57s25 -56 57 -56z" />
    <glyph glyph-name="AEacute" unicode="&#x1fc;" horiz-adv-x="1008" 
d="M532 73h427v-73h-510v177h-255l-91 -177h-91l369 705h557v-73h-406v-254h344v-72h-344v-233zM423 626l-196 -379h222v379h-26zM661 912l-174 -157h-58l139 164z" />
    <glyph glyph-name="aeacute" unicode="&#x1fd;" horiz-adv-x="1120" 
d="M595 0h-82v54c-50 -37 -114 -60 -188 -60c-154 0 -278 118 -278 279s124 278 278 278c70 0 139 -23 188 -60v50h82v-93c47 59 121 103 210 103c179 0 270 -127 270 -285c0 -6 0 -13 -1 -20h-458c14 -106 108 -179 209 -179c68 0 130 28 172 79l55 -44
c-48 -64 -131 -108 -230 -108c-103 0 -179 40 -227 102v-96zM513 131v281c-43 41 -105 66 -175 66c-118 0 -211 -91 -211 -205c0 -117 93 -206 211 -206c71 0 132 25 175 64zM811 483c-103 0 -181 -75 -194 -172h375c-8 98 -68 172 -181 172zM763 771l-174 -157h-58l139 164
z" />
    <glyph glyph-name="Oslashacute" unicode="&#x1fe;" horiz-adv-x="850" 
d="M619 912l-174 -157h-58l139 164zM87 0l80 93c-71 65 -115 157 -115 259c0 197 167 358 372 358c81 0 156 -25 217 -68l54 63h75l-85 -98c68 -65 112 -155 112 -255c0 -197 -166 -358 -373 -358c-79 0 -152 24 -212 65l-51 -59h-74zM139 352c0 -76 33 -144 84 -193
l364 420c-46 33 -102 52 -163 52c-157 0 -285 -125 -285 -279zM424 73c158 0 285 125 285 279c0 73 -31 141 -81 189l-362 -419c45 -31 99 -49 158 -49z" />
    <glyph glyph-name="oslashacute" unicode="&#x1ff;" horiz-adv-x="676" 
d="M532 771l-174 -157h-58l139 164zM63 0l67 76c-54 50 -87 119 -87 196c0 154 132 279 295 279c62 0 121 -19 169 -51l40 46h66l-69 -77c55 -50 88 -120 88 -197c0 -153 -132 -278 -294 -278c-63 0 -122 20 -169 51l-41 -45h-65zM338 68c117 0 212 92 212 204
c0 53 -23 101 -61 136l-268 -304c32 -23 73 -36 117 -36zM125 272c0 -53 23 -101 60 -135l269 304c-33 23 -73 36 -116 36c-118 0 -213 -92 -213 -205z" />
    <glyph glyph-name="Scommaaccent" unicode="&#x218;" horiz-adv-x="640" 
d="M340 391c142 -33 250 -76 250 -199c0 -126 -104 -200 -261 -200c-115 0 -167 9 -279 65l32 66c100 -49 153 -57 250 -57c104 0 171 44 171 120c0 74 -75 103 -185 129c-143 34 -261 71 -261 201c0 114 94 195 248 195c93 0 192 -24 257 -55l-36 -68
c-60 29 -153 49 -222 49c-101 0 -161 -48 -161 -116c0 -74 80 -102 197 -130zM328 -62c35 0 51 -28 51 -70c0 -62 -33 -132 -128 -132l-12 35c47 1 81 20 83 69c-24 3 -42 23 -42 49c0 27 22 49 48 49z" />
    <glyph glyph-name="scommaaccent" unicode="&#x219;" horiz-adv-x="529" 
d="M43 44l31 62c63 -25 125 -45 199 -45c100 0 136 44 136 90c0 52 -56 73 -153 93c-118 25 -203 63 -203 154c0 89 83 153 201 153c76 0 142 -17 204 -42l-28 -62c-55 24 -117 36 -178 36c-73 0 -124 -33 -124 -81s51 -69 152 -89c125 -25 206 -64 206 -158
c0 -89 -67 -161 -215 -161c-89 0 -158 19 -228 50zM273 -62c35 0 51 -28 51 -70c0 -62 -33 -132 -128 -132l-12 35c47 1 81 20 83 69c-24 3 -42 23 -42 49c0 27 22 49 48 49z" />
    <glyph glyph-name="uni021A" unicode="&#x21a;" horiz-adv-x="660" 
d="M617 705v-73h-242v-632h-87v632h-241v73h570zM329 -62c35 0 51 -28 51 -70c0 -62 -33 -132 -128 -132l-12 35c47 1 81 20 83 69c-24 3 -42 23 -42 49c0 27 22 49 48 49z" />
    <glyph glyph-name="uni021B" unicode="&#x21b;" horiz-adv-x="402" 
d="M378 472h-183v-272c0 -100 34 -134 104 -134c35 0 59 4 77 7v-63c-13 -4 -49 -16 -109 -16c-86 0 -156 55 -156 163v315h-89v69h89v213h84v-213h183v-69zM241 -63c35 0 51 -28 51 -70c0 -62 -33 -132 -128 -132l-12 35c47 1 81 20 83 69c-24 3 -42 23 -42 49
c0 27 22 49 48 49z" />
    <glyph glyph-name="dotlessj" unicode="&#x237;" horiz-adv-x="239" 
d="M77 10v531h84v-565c0 -108 -70 -163 -156 -163c-25 0 -45 3 -61 6v67c8 -1 18 -1 28 -1c70 0 105 36 105 125z" />
    <glyph glyph-name="Wgrave" unicode="&#x1e80;" horiz-adv-x="1117" 
d="M1082 705l-271 -705h-39l-217 563l-217 -563h-39l-272 705h92l202 -546l214 546h40l213 -546l202 546h92zM525 755l-174 157l94 7l139 -164h-59z" />
    <glyph glyph-name="Wdieresis" unicode="&#x1e84;" horiz-adv-x="1117" 
d="M1082 705l-271 -705h-39l-217 563l-217 -563h-39l-272 705h92l202 -546l214 546h40l213 -546l202 546h92zM640 856c24 0 45 -20 45 -45s-21 -45 -45 -45c-26 0 -46 20 -46 45s20 45 46 45zM467 856c25 0 45 -20 45 -45s-20 -45 -45 -45s-45 20 -45 45s20 45 45 45z" />
    <glyph glyph-name="Wacute" unicode="&#x1e82;" horiz-adv-x="1117" 
d="M1082 705l-271 -705h-39l-217 563l-217 -563h-39l-272 705h92l202 -546l214 546h40l213 -546l202 546h92zM758 912l-174 -157h-58l139 164z" />
    <glyph glyph-name="wgrave" unicode="&#x1e81;" horiz-adv-x="853" 
d="M753 541h83l-207 -541h-43l-159 416l-159 -416h-43l-209 541h84l154 -406l150 406h45l150 -406zM395 595l-174 157l94 7l139 -164h-59z" />
    <glyph glyph-name="wdieresis" unicode="&#x1e85;" horiz-adv-x="853" 
d="M753 541h83l-207 -541h-43l-159 416l-159 -416h-43l-209 541h84l154 -406l150 406h45l150 -406zM513 696c24 0 45 -20 45 -45s-21 -45 -45 -45c-26 0 -46 20 -46 45s20 45 46 45zM340 696c25 0 45 -20 45 -45s-20 -45 -45 -45s-45 20 -45 45s20 45 45 45z" />
    <glyph glyph-name="wacute" unicode="&#x1e83;" horiz-adv-x="853" 
d="M753 541h83l-207 -541h-43l-159 416l-159 -416h-43l-209 541h84l154 -406l150 406h45l150 -406zM633 752l-174 -157h-58l139 164z" />
    <glyph glyph-name="Ygrave" unicode="&#x1ef2;" horiz-adv-x="671" 
d="M556 705h99l-276 -463v-242h-86v242l-276 463h98l221 -374zM300 755l-174 157l94 7l139 -164h-59z" />
    <glyph glyph-name="ygrave" unicode="&#x1ef3;" horiz-adv-x="613" 
d="M498 541h86l-227 -570c-46 -114 -168 -157 -277 -157c-14 0 -27 0 -39 1l9 63h13c99 0 184 33 218 122h-22l-232 541h88l191 -443h18zM285 604l-174 157l94 7l139 -164h-59z" />
    </font>
</defs>
</svg>
